#TITLE:From The Cradle To Enslave;
#SUBTITLE:By Hellowen66601@hotmail.com;
#ARTIST:Cradle Of Filth;
#TITLETRANSLIT:;
#SUBTITLETRANSLIT:;
#ARTISTTRANSLIT:;
#CREDIT:;
#BANNER:Banner.jpg;
#BACKGROUND:Background.jpg;
#LYRICSPATH:Hellowen66601hotmail.com.lrc;
#CDTITLE:CDTitle.png;
#MUSIC:From The Cradle To Enslave.mp3;
#OFFSET:0.000;
#SAMPLESTART:100.000;
#SAMPLELENGTH:12.000;
#SELECTABLE:YES;
#DISPLAYBPM:*;
#BPMS:0.000=100.000,55.667=120.000,94.063=150.000,123.688=200.000,212.667=210.000,392.333=90.000,412.750=290.000,413.625=289.200,413.688=209.960,413.750=209.740,414.375=167.720,414.688=107.300,414.938=72.479,415.063=250.000,576.333=150.000,672.000=200.000,843.000=210.000,1022.833=200.000,1024.000=180.000,1025.167=160.000,1027.000=130.000,1028.833=100.000,1031.333=80.000,1032.667=70.000,1035.667=50.000,1037.000=30.000;
#STOPS:414.938=0.080
;
#BGCHANGES:15.833=From The Cradle To Enslave.avi=1.000=0=0=1,
26.833=From The Cradle To Enslave.mpg=1.000=0=0=1,
910.500=Background.jpg=1.000=0=0=1,
1038.938=1 (1).jpg=1.000=0=0=1,
1039.000=1 (2).jpg=1.000=0=0=1,
1039.188=1 (3).jpg=1.000=0=0=1,
1039.375=1 (4).jpg=1.000=0=0=1,
1039.563=1 (5).jpg=1.000=0=0=1,
1039.813=1 (6).jpg=1.000=0=0=1,
1040.000=1 (7).jpg=1.000=0=0=1,
1040.188=1 (8).jpg=1.000=0=0=1,
1040.375=1 (9).jpg=1.000=0=0=1,
1040.563=1.jpg=1.000=0=0=1,
1040.813=1 (1).jpg=1.000=0=0=1,
1041.000=1 (2).jpg=1.000=0=0=1,
1041.188=1 (3).jpg=1.000=0=0=1,
1041.375=1 (3).jpg=1.200=0=0=1,
1041.625=1 (4).jpg=1.000=0=0=1,
1041.813=1 (5).jpg=1.000=0=0=1,
1042.000=1 (6).jpg=1.000=0=0=1,
1042.188=1 (7).jpg=1.000=0=0=1,
1042.438=1 (8).jpg=1.000=0=0=1,
1042.625=1 (9).jpg=1.000=0=0=1,
1042.813=1.jpg=1.000=0=0=1,
1043.000=1 (1).jpg=1.000=0=0=1,
1043.188=1 (2).jpg=1.000=0=0=1,
1043.438=1 (3).jpg=1.000=0=0=1,
1043.625=1 (4).jpg=1.000=0=0=1,
1043.813=1 (5).jpg=1.000=0=0=1,
1044.000=1 (6).jpg=1.000=0=0=1,
1044.250=1 (7).jpg=1.000=0=0=1,
1044.438=1 (7).jpg=1.000=0=0=1,
1044.625=1 (8).jpg=1.000=0=0=1,
1044.813=1 (9).jpg=1.000=0=0=1,
1045.000=1.jpg=1.000=0=0=1,
1045.250=1 (1).jpg=1.000=0=0=1,
1045.438=1 (2).jpg=1.000=0=0=1,
1045.625=1 (3).jpg=1.000=0=0=1,
1045.875=1 (4).jpg=1.000=0=0=1,
1046.063=1 (5).jpg=1.000=0=0=1,
1046.188=1 (6).jpg=1.000=0=0=1,
1046.438=1 (7).jpg=1.000=0=0=1,
1046.625=1 (8).jpg=1.000=0=0=1,
1046.813=1 (9).jpg=1.000=0=0=1,
1047.000=1.jpg=1.000=0=0=1,
1047.188=1 (1).jpg=1.000=0=0=1,
1047.438=1 (2).jpg=1.000=0=0=1,
1047.625=1 (3).jpg=1.000=0=0=1,
1047.813=1 (4).jpg=1.000=0=0=1,
1048.000=1 (5).jpg=1.000=0=0=1,
1048.188=1 (6).jpg=1.000=0=0=1,
1048.438=1 (7).jpg=1.000=0=0=1,
1048.625=1 (8).jpg=1.000=0=0=1,
1048.813=1 (9).jpg=1.000=0=0=1,
1049.063=1.jpg=1.000=0=0=1,
1049.250=1 (1).jpg=1.000=0=0=1,
1049.438=1 (2).jpg=1.000=0=0=1,
1049.625=1 (3).jpg=1.000=0=0=1,
1049.813=1 (4).jpg=1.000=0=0=1,
1050.000=1 (5).jpg=1.000=0=0=1,
1050.250=1 (6).jpg=1.000=0=0=1,
1050.438=1 (7).jpg=1.000=0=0=1,
1050.688=1 (8).jpg=1.000=0=0=1,
1050.875=1 (9).jpg=1.000=0=0=1,
1051.063=1.jpg=1.000=0=0=1,
1051.250=1 (1).jpg=1.000=0=0=1,
1051.438=1 (2).jpg=1.000=0=0=1,
1051.625=1 (3).jpg=1.000=0=0=1,
1051.813=1 (4).jpg=1.000=0=0=1,
1052.063=1 (5).jpg=1.000=0=0=1,
1052.250=1 (6).jpg=1.000=0=0=1,
1052.438=1 (7).jpg=1.000=0=0=1,
1052.875=1 (9).jpg=1.000=0=0=1,
1053.063=1.jpg=1.000=0=0=1,
1053.250=1 (1).jpg=1.000=0=0=1,
1053.438=1 (2).jpg=1.000=0=0=1,
1053.625=1 (3).jpg=1.000=0=0=1,
1053.813=1 (4).jpg=1.000=0=0=1,
1054.000=1 (5).jpg=1.000=0=0=1,
1054.188=1 (6).jpg=1.000=0=0=1,
1054.375=1 (7).jpg=1.000=0=0=1,
1054.563=1 (8).jpg=1.000=0=0=1,
1054.875=1 (9).jpg=1.000=0=0=1,
1055.063=1.jpg=1.000=0=0=1,
1055.250=1 (1).jpg=1.000=0=0=1,
1055.438=1 (2).jpg=1.000=0=0=1,
1055.688=1 (3).jpg=1.000=0=0=1,
1055.875=1 (4).jpg=1.000=0=0=1,
1056.000=1 (5).jpg=1.000=0=0=1,
1056.250=1 (6).jpg=1.000=0=0=1,
1056.500=1 (7).jpg=1.000=0=0=1,
1056.625=1 (8).jpg=1.000=0=0=1,
1056.875=1 (9).jpg=1.000=0=0=1,
1057.063=1.jpg=1.000=0=0=1,
1057.250=de 1 (5).jpg=1.000=0=0=1,
1058.063=Background.jpg=1.000=0=0=1,
99999=-nosongbg-=1.000=0=0=0 // don't automatically add -songbackground-
;
// cache tags:
#FIRSTBEAT:2.083;
#LASTBEAT:1058.125;
#SONGFILENAME:Songs/Music V.I.P ^_^/Cradle Of Filth - From The Cradle To Enslave/From The Cradle To Enslave.sm;
#HASMUSIC:1;
#HASBANNER:1;
#MUSICLENGTH:390.408;
// end cache tags

//---------------dance-single - ThEvI----------------
#NOTES:
     dance-single:
     ThEvI:
     Challenge:
     15:
     1.000,1.000,1.000,1.000,1.000,1925.000,618.000,1439.000,0.000,95.000:
0000
0000
0000
0000
0000
0000
0000
0000
0000
0000
0000
0000
0000
0000
0000
0000
0000
0000
0000
0000
0000
0000
0000
0000
0000
0200
0000
0000
0000
2300
0000
0000
0000
3200
0000
0000
0000
0320
0000
0000
0000
0032
0000
0000
0000
0023
0000
0000
,
0000
0230
0000
0000
0000
0320
0000
0000
0000
0230
0000
0000
0000
2300
0000
0000
0000
3200
0000
0000
0000
0320
0000
0000
0000
0230
0000
0000
0000
2300
0000
0000
0000
3200
0000
0000
0000
0320
0000
0000
0000
0032
0000
0000
0000
0023
0000
0000
,
0000
0230
0000
0000
0000
0320
0000
0000
0000
0032
0000
0000
0000
0023
0000
0000
0000
0230
0000
0000
0000
2300
0000
0000
0000
3200
0000
0000
0000
0320
0000
0000
0000
0230
0000
0000
0000
2300
0000
0000
0000
3200
0000
0000
0000
0320
0000
0000
,
0000
0230
0000
0000
0000
0320
0000
0000
0000
0032
0000
0000
0000
0023
0000
0000
0000
0230
0000
0000
0000
0320
0000
0000
0000
0032
0000
0000
0000
0023
0000
0000
0000
0230
0000
0000
0000
0320
0000
0000
0000
0032
0000
0000
0000
0023
0000
0000
,
0000
0230
0000
0000
0000
0320
0000
0000
0000
0032
0000
0000
0000
0023
0000
0000
0000
0230
0000
0000
0000
0320
0000
0000
0000
0230
0000
0000
0000
2300
0000
0000
0000
3200
0000
0000
0000
0320
0000
0000
0000
0032
0000
0000
0000
0023
0000
0000
,
0000
0000
0000
0000
0230
0000
0000
0000
0000
0000
0000
0000
0000
0000
0000
0000
0000
0000
0000
0000
2300
0000
0000
0000
0000
0000
0000
0000
0000
0000
0000
0000
0000
0000
0000
0000
3200
0000
0000
0000
0000
0000
0000
0000
0000
0000
0000
0000
0000
0000
0000
0000
0320
0000
0000
0000
0000
0000
0000
0000
0000
0000
0000
0000
0000
0000
0000
0000
0230
0000
0000
0000
0000
0000
0000
0000
0000
0000
0000
0000
0000
0000
0000
0000
2300
0000
0000
0000
0000
0000
0000
0000
0000
0000
0000
0000
0000
0000
0000
0000
3200
0000
0000
0000
0000
0000
0000
0000
0000
0000
0000
0000
0000
0000
0000
0000
0320
0000
0000
0000
0000
0000
0000
0000
0000
0000
0000
0000
0000
0000
0000
0000
0032
0000
0000
0000
0000
0000
0000
0000
0000
0000
0000
0000
0000
0000
0000
0000
0023
0000
0000
0000
0000
0000
0000
0000
0000
0000
0000
0000
0000
0000
0000
0000
0130
0000
0000
0000
0000
0000
0000
0000
0000
0000
0022
0000
0000
0033
0000
0000
0000
0000
0000
0000
0000
0000
0000
0000
0000
0000
0000
0000
,
0000
0000
0000
0000
0000
2200
3300
0000
0000
0000
2200
3300
0000
0000
0000
0000
0000
0000
0000
0000
0000
0000
0000
0000
0000
0000
0220
0330
0000
0000
0000
0000
0000
0000
0000
0000
2002
3003
0000
0000
0000
2002
3003
0000
0000
0000
0000
0000
0000
0000
0000
0000
0000
0000
0000
0000
0000
2200
3300
0000
0000
0000
0000
0000
,
0000
0000
0000
0000
0000
0000
0000
0000
0000
0000
0000
0000
0022
0000
0000
0033
0000
0000
0000
0000
0000
0000
0000
0000
0000
0000
0000
0022
0000
0000
0033
0000
0000
0000
0000
0000
0000
0000
0000
0000
0000
0000
0000
0000
0000
0022
0000
0000
0033
0000
0000
0000
0000
0000
0000
0000
0000
0000
0000
0000
2000
0000
0000
0000
0000
0000
0000
0000
0000
0000
0000
0000
0000
0000
0000
0000
3200
0000
0000
0000
0000
0000
0000
0000
0000
0000
0000
0000
0000
0000
0000
0000
0320
0000
0000
0000
0000
0000
0000
0000
0000
0000
0000
0000
0000
0000
0000
0000
0032
0000
0000
0000
0000
0000
0000
0000
0000
0000
0000
0000
0000
0000
0000
0000
0023
0000
0000
0000
0000
0000
0000
0000
0000
0000
0000
0000
0000
0000
0000
0000
0230
0000
0000
0000
0000
0000
0000
0000
0000
0000
0000
0000
0000
0000
0000
0000
2300
0000
0000
0000
0000
0000
0000
0000
0000
0000
0000
0000
0000
0000
0000
0000
3200
0000
0000
0000
0000
0000
0000
0000
0000
0000
0000
0000
0000
0000
0000
0000
0302
0000
0000
0000
,
0000
0000
0000
0000
0000
0000
0000
0000
0000
0000
0000
0000
0203
0000
0000
0000
0000
0000
0000
0000
0000
0000
0000
0000
0000
0000
0000
0000
0320
0000
0000
0000
0000
0000
0000
0000
0000
0000
0000
0000
0000
0000
0000
0000
0032
0000
0000
0000
0000
0000
0000
0000
0000
0000
0000
0000
0000
0000
0000
0000
2003
0000
0000
0000
0000
0000
0000
0000
0000
0000
0000
0000
0000
0000
0000
0000
3020
0000
0000
0000
0000
0000
0000
0000
0000
0000
0000
0000
0000
0000
0000
0000
0031
0000
0000
0000
0000
0000
0000
0000
0000
0000
0000
0000
0000
0000
0000
0000
2020
0000
0000
3030
0000
0000
0000
0000
0000
0000
0000
0000
0000
0000
0000
0000
0000
0000
0000
0000
0000
0000
0000
0000
0000
0000
0000
0000
0000
0000
0000
0000
0000
0202
0000
0000
0303
0000
0000
0000
0000
0000
0000
0000
0000
0000
0000
0000
0000
0000
0000
0202
0000
0000
0303
0000
0000
0000
0000
0000
0000
0000
0000
0000
0000
0000
0000
0000
0000
0000
0000
0000
0000
0000
0000
0000
0000
0000
0000
0000
0000
0000
0000
0000
,
0000
0000
0000
0000
0000
0000
0000
0000
0000
0000
0000
0000
0000
0000
0000
2200
0000
0000
3300
0000
0000
0000
0000
0000
0000
0000
0000
0000
0000
0000
0000
0000
0000
0000
0000
0000
0000
0000
0000
0000
0000
0000
0000
0000
0000
2020
0000
0000
3030
0000
0000
0000
0000
0000
0000
0000
0000
0000
0000
0000
0000
0000
0000
2020
0000
0000
3030
0000
0000
0000
0000
0000
0000
0000
0000
0000
0000
0000
0000
0000
0000
0000
0000
0000
0000
0000
0000
0000
0000
0000
0000
0000
0000
0000
0000
0000
0000
0000
0000
0000
0000
0000
0000
0000
0000
0000
0000
0000
0000
0000
0000
2002
0000
0000
3003
0000
0000
0000
0000
0000
0000
0000
0000
0000
0000
0000
0000
0000
0000
0000
0000
0000
0000
0000
0000
0000
0000
0000
2200
0000
0000
3300
0000
0000
0000
0000
0000
0000
0000
0000
0000
0000
0000
0000
0000
0000
0220
0000
0000
0330
0000
0000
0000
0000
0000
0000
0000
0000
0000
0000
0000
0022
0000
0000
0033
0000
0000
0000
0000
0000
0000
0000
0000
0000
0000
0000
0000
0000
0200
0000
0000
0000
,
0000
0000
0000
2300
0000
0000
0000
3020
0000
0000
0000
0230
0000
0000
0000
0302
0000
0000
0000
0203
0000
0000
0000
0320
0000
0000
0000
2030
0000
0000
0000
3002
0000
0000
0000
0203
0000
0000
0000
0320
0000
0000
0000
2030
0000
0000
0000
3200
,
0000
0000
0000
0320
0000
0000
0000
0130
0000
0000
0000
0000
2001
0000
0000
0000
3010
0000
0000
0000
0201
0000
0000
0000
2300
0000
0000
0000
3020
0000
0000
0000
0031
0000
0000
0000
2100
0000
0000
0000
3002
0000
0000
0000
0023
0000
0000
0000
,
1030
0201
0320
2030
3001
0210
2300
3002
0103
2010
3200
0320
,
0031
2010
3002
0203
0310
2001
3200
0320
0031
2100
3001
2010
,
0000
3100
0000
0000
0000
0000
0000
2010
0000
0000
0000
0000
0000
0000
3002
0000
0000
0000
0000
0000
0023
0000
0000
0000
0000
0000
0000
1030
0000
0000
0000
0000
0000
0210
0000
0000
0000
0000
0000
2300
0000
0000
0000
0000
0000
0000
3002
0000
0000
0000
0000
0000
0013
0000
0000
0000
0000
0000
0000
0201
0000
0000
0000
0000
,
0000
0000
2300
0000
0000
0000
0000
0000
3200
0000
0000
0000
0000
0000
0301
0000
0000
0000
0000
0000
0210
0000
0000
0000
0000
0000
0000
2300
0000
0000
0000
0000
0000
3020
0000
0000
0000
0000
0000
1030
0000
0000
0000
0000
0201
0000
0000
0000
0000
0000
0000
0320
0000
0000
0000
0000
0000
0000
0230
0000
0000
0000
0000
0000
,
0000
0301
0000
0000
0000
0000
0000
2010
0000
0000
0000
0000
0000
3100
0000
0000
0000
0000
0000
0000
0021
0000
0000
2030
0000
0000
3020
0000
0000
0230
0000
0000
0302
0000
0000
2003
0000
0000
3200
0000
0000
0302
0000
0000
0023
0000
0000
2030
0000
0000
3200
0000
0000
0310
0000
0000
0000
2001
0000
0000
0000
0000
0000
0000
,
3020
0000
0000
0000
0000
0000
0000
0230
0000
0000
0000
0000
0000
0301
0000
0000
0000
0000
0000
0000
2100
0000
0000
0000
0000
0000
3020
0000
0000
0000
0000
0000
0000
0032
0000
0000
0000
0000
0000
0103
0000
0000
0000
0000
0000
2010
0000
0000
0000
0000
0000
0000
3200
0000
0000
0000
0000
0000
0302
0000
0000
0000
0000
0000
,
1003
0000
0000
0000
0000
0000
0000
0210
0000
0000
0000
0000
0000
0000
0302
0000
0000
0000
0000
0000
0000
0203
0000
0000
0000
0000
0000
1300
0000
0000
0000
0000
0000
0000
0210
0000
0000
0000
0000
0000
0302
0000
0000
0000
0000
0000
2003
0000
0000
0000
0000
0000
0000
3010
0000
0000
0000
0000
0000
2100
0000
0000
0000
0000
,
0000
0000
3002
0000
0000
0000
0000
0000
0203
0000
0000
0000
0000
0000
0310
0000
0000
0000
0000
0000
2100
0000
0000
0000
0000
0000
0000
3020
0000
0000
0000
0000
0000
0000
0230
0000
0000
0000
0000
0000
0301
0000
0000
0000
0000
0000
0210
0000
0000
0000
0000
0000
0000
0302
0000
0000
0000
0000
0000
0203
0000
0000
0000
0000
,
0000
0000
1300
0000
0000
0000
0000
0000
0201
0000
0000
0000
0000
0000
0000
0320
0000
0000
0000
0000
0000
2030
0000
0000
0000
0000
0000
0000
3010
0000
0000
0000
0000
0000
0201
0000
0000
0000
0000
0000
0000
2300
0000
0000
0000
0000
0000
3020
0000
0000
0000
0000
0000
0031
0000
0000
0000
0000
0000
0000
2010
0000
0000
0000
,
0000
0000
0000
3200
0000
0000
0000
0000
0000
0302
0000
0000
0000
0000
0000
0103
0000
0000
0000
0000
0000
2001
0000
0000
0000
0000
0000
3020
0000
0000
0000
0000
0000
2030
0000
0000
0000
0000
0000
0000
3100
0000
0000
0000
0000
0000
0000
2010
0000
0000
0000
0000
0000
3200
0000
0000
0000
0000
0000
0302
0000
0000
0000
0000
,
0000
0000
0103
0000
0000
0000
0000
0000
0000
2010
0000
0000
0000
0000
0000
3200
0000
0000
0000
0000
0000
0302
0000
0000
0000
0000
0000
1003
0000
0000
0000
0000
0000
0000
0210
0000
0000
0000
0000
0000
2300
0000
0000
3200
0000
0000
0320
0000
0000
0032
0000
0000
2003
0000
0000
3020
0000
0000
2030
0000
0000
3002
0000
0000
,
0203
0000
0000
0302
0000
0000
0023
0000
0000
2030
0000
0000
3200
0000
0000
0320
0000
0000
2030
0000
0000
3002
0000
0000
0203
0000
0000
2300
0000
0000
3010
0000
0000
0101
0000
0000
0000
0000
0000
0000
0000
0000
0000
0000
0000
0000
0000
0000
0110
0000
0000
0000
0000
0000
0000
0000
0000
0000
0000
0000
0000
0000
0000
0000
,
1001
0000
0000
0000
0000
0000
0000
0000
0000
0000
0000
0000
0000
0000
0000
0000
0000
0000
0011
0000
0000
0000
0000
0000
0000
0000
0000
1010
0000
0000
0000
0000
0000
0000
0000
0000
0000
0000
0000
0000
0000
0000
0000
0101
0000
0000
0000
0000
0000
0000
0000
0000
0000
0000
0000
0000
0000
0000
0000
0000
0000
0000
0000
0000
,
0000
0000
0000
0000
0000
0000
0000
0000
0011
0000
0000
0000
0000
1100
0000
0000
0000
0000
0101
0000
0000
0000
0000
0000
0000
0000
0000
0000
0000
0000
0110
0000
,
0000
0000
0000
0000
1001
0000
0000
0000
0000
0000
0000
0000
0000
0000
0000
0000
0000
0000
0000
0000
0000
0000
0000
0000
0000
0101
0000
0000
0000
0000
0000
0000
0000
0000
1010
0000
0000
0000
0000
0000
0000
0000
0000
0000
0000
0000
0000
0000
0000
0000
0000
0000
0000
0000
0000
0000
0000
0000
0000
0000
0000
0000
0000
0000
,
0000
0000
0000
0000
0110
0000
0000
1010
0000
1010
0000
0101
0000
0101
0000
1010
,
0000
0000
1010
0000
0000
0000
0000
0000
0000
0000
0110
0000
0000
0000
0110
0000
0000
0000
0101
0000
0000
0000
0101
0000
0000
0000
0000
1010
0000
0000
0000
0000
,
0000
1010
0000
0000
0000
0000
0000
0000
0000
0000
1001
0000
0000
0000
0000
0000
0000
0000
0011
0000
0000
0000
0110
0000
0000
0000
1100
0000
0000
0000
0110
0000
,
0000
0000
0000
0000
0011
0000
0000
0000
0000
0000
0000
0000
0000
0000
0000
0000
0000
0000
0000
1001
0000
0000
0000
0000
0000
0000
0000
0110
0000
0000
0000
0000
0000
0000
0000
1001
0000
0000
0000
0000
0000
0000
0000
0011
0000
0000
0000
0000
0000
0000
0000
0000
0011
0000
0000
0000
0000
0000
0000
0110
0000
0000
0000
0000
,
0000
0000
0000
0000
0000
0000
0000
0000
0000
2001
0000
3010
,
0000
2100
0000
3002
0000
0203
0000
0310
0000
2001
0000
3200
,
0000
0320
0000
1030
0000
0201
0000
0320
0000
0230
0000
0301
,
0000
2010
0000
3200
0000
0320
0000
0031
0000
2010
0000
3002
,
0000
0203
0000
0301
0000
2100
0000
3020
0000
2030
0000
3001
,
0000
0210
0000
2300
0000
3002
0000
0103
0000
0021
0000
2030
,
0000
3020
0000
0130
0000
2010
0000
3200
0000
0302
0000
0013
,
0000
2001
0000
3200
0000
0320
0000
0031
0000
2100
0000
3020
,
0000
2030
0000
3001
0000
2010
0000
3200
0000
0320
0000
0031
,
0000
2010
0000
3200
0000
0320
0000
1030
0000
0201
0000
0310
,
0000
2100
3020
0032
0023
0230
0320
0032
0023
0230
2300
3200
,
0320
0000
0230
0000
2300
0000
3200
0000
0320
0000
0032
0000
0013
0000
0000
0201
0000
0000
0000
0310
0000
0000
0000
2100
,
0000
0000
0000
3001
0000
0000
0000
0210
0000
0000
0000
0301
0000
0000
0000
2010
0000
0000
0000
3100
0000
0000
0000
0021
,
0000
0000
0000
1030
0000
0000
0000
0210
0000
0000
0000
0301
0000
0000
0000
2100
0000
0000
0000
3010
0000
0000
0000
0201
,
0000
0000
0000
0310
0000
0000
0000
2100
0000
0000
0000
3010
0000
0000
0000
0201
0000
0000
0000
1300
0000
0000
0000
0210
,
0000
0000
0000
1300
0000
0000
0000
0201
0000
0000
0000
0310
0000
0000
0000
2100
0000
0000
0000
3010
0000
0000
0000
0201
,
0000
0000
0000
0310
0000
0000
0000
2100
0000
0000
0000
3010
0000
0000
0000
0201
0000
0000
0000
0310
0000
0000
0000
2100
,
0000
0000
0000
3010
0000
0000
0000
2001
0000
0000
0000
3100
0000
0000
0000
2010
0000
0000
0000
3001
0000
0000
0000
2100
,
0000
0000
0000
3010
0000
0000
0000
0201
0000
0000
0000
0310
0000
0000
0000
2100
0000
0000
0000
3010
0000
0000
0000
2001
,
0000
0000
0000
3010
0000
0000
0000
0201
0000
0000
0000
1300
0000
0000
0000
0021
0000
0000
0000
0130
0000
0000
0000
2010
,
0000
0000
0000
3100
0000
0000
0000
2010
0000
0000
0000
3001
0000
0000
0000
2010
0000
0000
0000
3100
0000
0000
0000
2010
,
0000
0000
0000
3100
0000
0000
0000
0021
0000
0000
0000
0130
0000
0000
0000
2010
0000
0000
0000
3001
0000
0000
0000
2100
,
0000
0000
0000
3010
0000
0000
0000
0000
2001
0000
0000
0000
3020
0000
0000
0000
0230
0000
0000
0000
0320
0000
0000
0000
0032
0000
0000
0000
0203
0000
0000
0000
0320
0000
0000
0000
2030
0000
0000
0000
3200
0000
0000
0000
0320
0000
0000
0000
,
0032
0023
0230
0302
0023
0230
0302
2003
3200
0320
2030
3002
,
0203
0320
2030
3002
0203
0320
0032
0023
0230
0320
0032
0023
,
0230
2300
3200
2300
3200
0320
0230
0302
0023
0230
2300
3200
,
0320
0230
2300
3002
0023
0230
0320
0032
2003
3200
0320
2030
,
3200
0302
0023
0230
0302
0023
0230
0320
2030
3200
0302
0023
,
0230
2300
3020
0032
0023
0230
0302
0023
0230
2300
3200
0320
,
2030
3200
0320
2030
3002
0023
2030
3200
0302
0023
2030
3200
,
0320
0032
0203
2300
3020
0032
0203
2300
3020
0032
0023
0230
,
2300
3200
0320
0230
2300
3020
0032
0203
2300
3020
0032
0203
,
2300
3020
0032
0203
2300
3020
0032
0203
2300
3020
0032
0203
,
2300
0000
3200
0000
0320
0000
0032
0000
0203
0000
0310
0000
2001
0000
0000
0000
3010
0000
0000
0000
0000
2100
0000
0000
,
0000
3010
0000
0000
0201
0000
0000
0310
0000
0000
2100
0000
0000
3001
0000
0000
,
0210
0000
0000
0000
0000
0000
0000
0000
0000
0301
0000
0000
0000
0000
0000
0000
0000
0000
2010
0000
0000
0000
0000
0000
0000
0000
0000
3100
0000
0000
0000
0000
0000
0000
0000
0000
2010
0000
0000
0000
0000
0000
0000
0000
3001
0000
0000
0000
,
0000
2010
0000
3100
0000
0021
0000
1030
0000
0210
0000
1300
,
0000
0021
0000
0130
0000
2010
0000
3100
0000
0021
0000
1030
,
0000
0000
0000
0000
0000
0000
0000
0000
0000
0000
0000
0000
0000
0000
0000
0000
0201
0000
0000
0000
0000
0000
0000
0000
0000
0000
0000
0000
0000
0000
0000
0000
0000
0000
0000
0000
0000
0000
0000
0000
0000
0000
0000
0000
0000
0000
0000
0000
0000
0000
0000
0000
0310
0000
0000
0000
0000
0000
0000
0000
0000
0000
0000
0000
0000
0000
0000
0000
0000
0000
0000
0000
0000
0000
0000
0000
0000
0000
0000
0000
0000
0000
0000
0000
2100
0000
0000
0000
0000
0000
0000
0000
0000
0000
0000
0000
0000
0000
0000
0000
0000
0000
0000
0000
0000
0000
0000
0000
0000
0000
0000
0000
0000
0000
0000
0000
0000
3010
0000
0000
0000
0000
0000
0000
0000
0000
0000
0000
0000
0000
0000
0000
0000
0000
0000
0000
0000
0000
0000
0000
0000
0000
0000
0000
0000
0000
0000
0000
0000
0000
0201
0000
0000
0000
0000
0000
0000
0000
0000
0000
0000
0000
0000
0000
0000
0000
0000
0000
0000
0000
0000
0000
0000
0000
0000
0000
0000
0000
0000
0000
0000
0000
0000
0000
0310
0000
0000
0000
0000
0000
0000
0000
,
0000
0000
2100
0000
0000
3010
0000
0000
2001
0000
0000
3100
0000
0000
2010
0000
,
0000
0000
0000
0000
0000
0000
0000
0000
0000
0000
0000
0000
3100
0000
0000
0000
0000
0000
0000
0000
0000
0000
0000
0000
0000
0000
0000
0000
0000
0000
0000
0000
0000
0000
0000
0000
0000
0000
0000
0000
0000
0000
0000
0000
0000
0000
0000
0000
0021
0000
0000
0000
0000
0000
0000
0000
0000
0000
0000
0000
0000
0000
0000
0000
0000
0000
0000
0000
0000
0000
0000
0000
0000
0000
0000
0000
0000
0000
0000
0000
0130
0000
0000
0000
0000
0000
0000
0000
0000
0000
0000
0000
0000
0000
0000
0000
0000
0000
0000
0000
0000
0000
0000
0000
0000
0000
0000
0000
0000
0000
0000
0000
0000
0000
2010
0000
0000
0000
0000
0000
0000
0000
0000
0000
0000
0000
0000
0000
0000
0000
0000
0000
0000
0000
0000
0000
0000
0000
0000
0000
0000
0000
0000
0000
3100
0000
0000
0000
0000
0000
0000
0000
0000
0000
0000
0000
0000
0000
0000
0000
0000
0000
0000
0000
0000
0000
0000
0000
0000
0000
0000
0000
0000
0000
0000
0000
2001
0000
0000
0000
0000
0000
0000
0000
0000
0000
0000
0000
0000
0000
0000
0000
,
0000
0000
0000
0000
0000
0000
0000
0000
0000
0000
0000
0000
0000
0000
0000
0000
0000
0000
3010
0000
0000
0000
0000
0000
0000
0000
0000
0000
0000
0000
0000
0000
0000
0000
0000
0000
0000
0000
0000
0000
0000
0000
0000
0000
0000
0000
0000
0000
0000
0000
0000
0000
0000
0000
2100
0000
0000
0000
0000
0000
0000
0000
0000
0000
0000
0000
0000
0000
0000
0000
0000
0000
0000
0000
0000
0000
0000
0000
0000
0000
0000
0000
0000
0000
0000
0000
0000
0000
3010
0000
0000
0000
0000
0000
0000
0000
0000
0000
0000
0000
0000
0000
0000
0000
0000
0000
0000
0000
0000
0000
0000
0000
0000
0000
0000
0000
0000
0000
0000
0000
0201
0000
0000
0000
0000
0000
0000
0000
0000
0000
0000
0000
0000
0000
0000
0000
0000
0000
0000
0000
0000
0000
0000
0000
0000
0000
0000
0000
0000
0000
0000
0000
0000
0000
0000
0000
0310
0000
0000
0000
0000
0000
0000
0000
0000
0000
0000
0000
0000
0000
0000
0000
0000
0000
0000
0000
0000
0000
0000
0000
0000
0000
0000
0000
0000
0000
0000
0000
0000
0000
0000
0000
,
2100
0000
0000
0000
0000
0000
0000
0000
0000
0000
0000
0000
0000
0000
0000
0000
0000
0000
0000
0000
0000
0000
0000
0000
0000
0000
0000
0000
0000
0000
0000
0000
3010
0000
0000
0000
0000
0000
0000
0000
0000
0000
0000
0000
0000
0000
0000
0000
0000
0000
0000
0000
0000
0000
0000
0000
0000
0000
0000
0000
0000
0000
0000
0000
0000
0000
0201
0000
0000
0000
0000
0000
0000
0000
0000
0000
0000
0000
0000
0000
0000
0000
0000
0000
0000
0000
0000
0000
0000
0000
0000
0000
0000
0000
0000
0000
0000
0000
0000
0000
0000
0000
0310
0000
0000
0000
0000
0000
0000
0000
0000
0000
0000
0000
0000
0000
0000
0000
0000
0000
0000
0000
0000
0000
0000
0000
0000
0000
0000
0000
0000
0000
0000
0000
0000
0000
2100
0000
0000
0000
0000
0000
0000
0000
0000
0000
0000
0000
0000
0000
0000
0000
0000
0000
0000
0000
0000
0000
0000
0000
0000
0000
0000
0000
0000
0000
0000
0000
3010
0000
0000
0000
0000
0000
0000
0000
0000
0000
0000
0000
0000
0000
0000
0000
0000
0000
0000
0000
0000
0000
0000
0000
,
0000
0000
0000
0000
0000
0000
0000
0000
0000
0000
0000
0000
0201
0000
0000
0000
0000
0000
0000
0000
0000
0000
0000
0000
0000
0000
0000
0000
0000
0000
0000
0000
0000
0000
0000
0000
0000
0000
0000
0000
0000
0000
0000
0000
0310
0000
0000
0000
0000
0000
0000
0000
0000
0000
0000
0000
0000
0000
0000
0000
0000
0000
0000
0000
0000
0000
0000
0000
0000
0000
0000
0000
0000
0000
0000
0000
0000
0000
0000
0000
2100
0000
0000
0000
0000
0000
0000
0000
0000
0000
0000
0000
0000
0000
0000
0000
0000
0000
0000
0000
0000
0000
0000
0000
0000
0000
0000
0000
0000
0000
0000
0000
0000
0000
3010
0000
0000
0000
0000
0000
0000
0000
0000
0000
0000
0000
0000
0000
0000
0000
0000
0000
0000
0000
0000
0000
0000
0000
0000
0000
0000
0000
0000
0000
0000
0000
0000
0000
0000
0000
0000
0000
2001
0000
0000
0000
0000
0000
0000
0000
0000
0000
0000
0000
0000
0000
0000
0000
0000
0000
0000
0000
0000
0000
0000
0000
0000
0000
0000
0000
0000
0000
0000
0000
0000
0000
0000
0000
3010
0000
0000
0000
,
0000
0000
0000
0000
0000
0000
0000
0000
0000
0201
0000
0000
0000
0000
0000
0000
0000
0000
0000
0310
0000
0000
0000
0000
0000
0000
0000
0000
0000
2100
0000
0000
3002
0000
0000
0000
0203
0000
0000
0000
0320
0000
0000
0000
0130
0000
0000
0000
,
2001
3020
0032
0203
0320
0032
0013
2100
3020
0230
0302
0203
,
2300
3020
0230
0301
2010
3200
0302
0023
2030
3200
0320
0032
,
0013
2100
3020
0032
0023
0230
0320
0032
0103
2010
3200
0302
,
0023
2030
3200
0302
0013
2100
3020
2030
3200
0302
0023
0230
,
0320
0031
2010
3200
0320
0032
2003
3200
0320
2030
3001
2100
,
3020
0032
0203
0320
0230
0302
1003
0021
0230
0320
0032
0023
,
0230
0320
0032
0103
2010
3200
0302
0023
2030
3200
2300
3100
,
0021
0230
0320
0032
0023
2030
3020
0130
2010
3200
0302
0023
,
0230
0302
0203
0320
0031
2100
3020
0230
0320
0032
0203
2300
,
3010
2100
3020
0230
0302
0023
0230
0302
0103
2010
3200
0320
,
2030
3002
0203
0320
1030
0210
2300
3002
0103
2001
0010
0100
,
0010
0001
3010
2001
3200
0320
0032
0023
0230
0302
0013
2100
,
3020
0032
0023
0230
2300
3200
0320
1030
0210
0302
0023
0230
,
2300
3200
0302
0103
2010
3002
0023
2030
3200
0302
0023
1030
,
0210
2300
3200
0302
0023
0032
2003
3010
2100
3002
0023
0032
,
0023
0230
2300
3200
0310
2001
3200
0320
2030
3002
0203
0320
,
1030
0210
0302
2003
3020
0230
0302
2003
3020
0130
2010
3002
,
0203
0320
2030
3002
0203
0310
2100
3020
0032
0203
0320
2030
,
3200
0302
0013
2100
3020
0230
2300
3002
0023
2030
3200
0310
,
2001
3200
2300
3020
0230
0302
2003
3010
2100
3020
0032
0203
,
0320
0230
0302
0013
2100
3020
0230
2300
3020
0230
0302
0013
,
2001
3200
0320
2030
3002
0023
0230
0301
2010
3200
0302
0023
,
0130
0000
0000
0000
0000
0000
0000
0000
0000
0000
0000
0000
0000
0000
0000
0000
2002
0000
0000
0000
0000
0000
0000
0000
0000
0000
0000
0000
0000
0000
0000
0000
0003
0000
0000
0000
0000
0000
0000
0000
0000
0000
0000
0000
0000
0000
0000
0000
0000
0000
0000
0000
0000
0000
0000
0000
0000
0000
0000
0000
3020
0000
0000
0000
0000
0000
0000
0000
0000
0000
0000
0000
0030
0000
0000
0000
0000
0000
0200
0000
0000
0000
0000
0000
0000
0000
0000
0000
0000
0000
0000
0000
0000
0000
0000
0000
0000
0000
0000
0000
0000
0000
0000
0000
0000
0000
0000
0000
0000
0000
0000
0000
0000
0000
0300
0000
0000
0000
0000
0000
0000
0000
0000
0000
0000
0000
0000
0000
0000
0000
0000
0000
0000
0000
0000
0000
0000
0000
0000
0000
0000
0000
0000
0000
0000
0000
0000
0000
0000
0000
0022
0000
0000
0033
0000
0000
0000
0000
0000
0000
0000
0000
0000
0000
0000
0000
0000
0000
0000
0000
0000
0000
0000
0000
0000
0000
0000
0000
0000
0000
0000
0000
0000
0000
0000
0000
0000
0000
0000
0000
0000
0000
,
0000
0000
0000
0000
0000
0000
0000
0000
0220
0330
0000
0000
0000
0000
0000
0000
0000
0000
0000
0000
0000
0000
0000
0000
0000
0000
0000
0000
2020
3030
0000
0000
0000
0000
0000
0000
0000
0000
0000
0000
0000
0000
0000
0000
0000
0000
0000
0000
0000
0000
2200
3300
0000
0000
0000
0000
0000
0000
0000
0000
0000
0000
0000
0000
,
0000
0000
0000
0000
0000
0000
0000
0000
0022
0033
0000
0000
0000
0000
0000
0000
0000
0000
0000
0000
0000
0000
0000
0000
0000
0000
0000
0000
2020
3030
0000
0000
0000
0000
0000
0000
0000
0000
0000
0000
0000
0000
0000
0000
0000
0000
0000
0000
0000
0000
0202
0303
0000
0000
0000
0000
0000
0000
0000
0000
0000
0000
0000
0000
,
0000
0000
0000
0000
0220
0330
0000
0000
0000
0000
2002
3003
0000
0000
0000
0000
0000
0000
0000
0000
0000
0000
0000
0000
0000
0000
0000
0000
0000
0000
0202
0303
0000
0000
0000
0000
0000
0000
0000
0000
0000
0000
0000
0000
0000
0000
0000
0000
0000
0000
0000
0000
0000
0000
0220
0330
0000
0000
0000
0000
0000
0000
0000
0000
,
0000
0000
0000
0000
0000
0000
0000
0000
0000
0000
2020
3030
0000
0000
0000
0000
0000
0000
0000
0000
0000
0000
0000
0000
0000
0000
0000
0000
0000
0000
0000
0000
0202
0303
0000
0000
0000
0000
0000
0000
0000
0000
0000
0000
0000
0000
0000
0000
0000
0000
0000
0000
0000
0000
2002
3003
0000
0000
0000
0000
0000
0000
0000
0000
,
0000
0000
0000
0000
0000
0000
0000
0000
0000
0000
0000
0000
0000
0000
0000
0000
0000
0000
0000
0000
0000
0000
0000
0000
0000
0000
0000
0000
0000
0000
0000
0000
0000
0000
0000
0000
0220
0000
0000
0000
0000
0000
0000
0000
0000
0000
0000
0000
0000
0000
0000
0000
0000
0000
0000
0000
0000
0000
0000
0000
0000
0000
0000
0000
0000
0000
0000
0000
0000
0000
0000
0000
0000
0000
0000
0000
0000
0000
0000
0000
0000
0000
0000
0000
0000
0000
0000
0000
0000
0000
0000
0000
0000
0000
0000
0000
0000
0000
0000
0000
0000
0000
0000
0000
0000
0000
0000
0000
0000
0000
0000
0000
0000
0000
0000
0000
0000
0000
0000
0000
0000
0000
0000
0000
0000
0000
0000
0000
0000
0000
0000
0000
0000
0000
0000
0000
0000
0000
0000
0000
0000
0330
0000
0000
0000
0000
0000
0000
0000
0000
0000
0000
2001
0000
0000
0000
0000
0000
0000
0000
0000
0000
0000
0000
0000
0000
0000
0000
0000
0000
0000
0000
3010
0000
0000
0000
0000
0000
0000
0000
0000
0000
0000
0000
0000
0000
0000
0000
0000
0000
0000
0000
,
2001
0000
0000
0000
0000
3010
0000
0000
0000
0000
2001
0000
0000
0000
0000
3010
0000
0000
0000
0000
2001
0000
0000
0000
0000
3010
0000
0000
0000
0000
2001
0000
0000
0000
0000
3010
0000
0000
0000
0000
2001
0000
0000
0000
0000
3010
0000
0000
,
0000
0000
2001
0000
0000
0000
0000
3010
0000
0000
0000
0000
2001
0000
0000
0000
0000
3010
0000
0000
0000
0000
2001
0000
0000
0000
0000
3010
0000
0000
0000
0000
2001
0000
0000
0000
0000
3100
0000
0000
0000
0000
0021
0000
0000
0000
0000
0130
,
0000
0000
0000
0000
0021
0000
0000
0000
0000
0130
0000
0000
0000
0000
0021
0000
0000
0000
0000
0130
0000
0000
0000
0000
0021
0000
0000
0000
0000
0130
0000
0000
0000
0000
0021
0000
0000
0000
0000
0130
0000
0000
0000
0000
0021
0000
0000
0000
,
0000
1030
0000
0000
0000
0000
0201
0000
0000
0000
0000
1300
0000
0000
0000
0000
0201
0000
0000
0000
0000
1300
0000
0000
0000
0000
0201
0000
0000
0000
0000
1300
0000
0000
0000
0000
0201
0000
0000
0000
0000
1300
0000
0000
0000
0000
0201
0000
,
0000
0000
0000
0310
0000
0000
0000
0000
2100
0000
0000
0000
0000
3010
0000
0000
0000
0000
2100
0000
0000
0000
0000
3010
0000
0000
0000
0000
2100
0000
0000
0000
0000
3010
0000
0000
0000
0000
0201
0000
0000
0000
0000
0310
0000
0000
0000
0000
,
0201
0000
0000
0000
0000
0310
0000
0000
0000
0000
0201
0000
0000
0000
0000
0310
0000
0000
0000
0000
0201
0000
0000
0000
0000
0310
0000
0000
0000
0000
0201
0000
0000
0000
0000
0310
0000
0000
0000
0000
0201
0000
0000
0000
0000
0310
0000
0000
,
0000
0000
0201
0000
0000
0000
0000
0310
0000
0000
0000
0000
0201
0000
0000
0000
0000
0310
0000
0000
0000
0000
0201
0000
0000
0000
0000
1300
0000
0000
0000
0000
0021
0000
0000
0000
0000
1030
0000
0000
0000
0000
0021
0000
0000
0000
0000
1030
,
0000
0000
0000
0000
0021
0000
0000
0000
0000
1030
0000
0000
0000
0000
0210
0000
0000
0000
0000
1300
0000
0000
0000
0000
0210
0000
0000
0000
0000
1300
0000
0000
0000
0000
0210
0000
0000
0000
0000
1300
0000
0000
0000
0000
0210
0000
0000
0000
,
0000
1300
0000
0000
0000
0000
0210
0000
0000
0000
0000
1300
0000
0000
0000
0000
0210
0000
0000
0000
0000
1300
0000
0000
0000
0000
0210
0000
0000
0000
0000
1300
0000
0000
0000
0000
0210
0000
0000
0000
0000
1300
0000
0000
0000
0000
0210
0000
,
0000
0000
0000
1300
0000
0000
0000
0000
0210
0000
0000
0000
0000
1300
0000
0000
0000
0000
0210
0000
0000
0000
0000
1300
0000
0000
0000
0000
0210
0000
0000
0000
0000
1300
0000
0000
0000
0000
0201
0000
0000
0000
0000
1300
0000
0000
0000
0000
,
0201
0000
0000
0000
0000
1300
0000
0000
0000
0201
0000
0000
0000
0000
1300
0000
0000
0000
0000
0201
0000
0000
0000
0000
1300
0000
0000
0000
0000
0021
0000
0000
0000
0000
0130
0000
0000
0000
0000
0021
0000
0000
0000
0000
0130
0000
0000
0000
,
0000
0021
0000
0000
0000
0000
0130
0000
0000
0000
0000
0021
0000
0000
0000
0000
1030
0000
0000
0000
0000
0210
0000
0000
0000
0000
1300
0000
0000
0000
0000
0210
0000
0000
0000
0000
1300
0000
0000
0000
0000
0210
0000
0000
0000
0000
1300
0000
,
0000
0000
0000
0210
0000
0000
0000
0000
1300
0000
0000
0000
0000
0210
0000
0000
0000
0000
1300
0000
0000
0000
0000
0210
0000
0000
0000
0000
1300
0000
0000
0000
0000
0210
0000
0000
0000
0000
1300
0000
0000
0000
0000
0210
0000
0000
0000
0000
,
1300
0000
0000
0000
0000
0210
0000
0000
0000
0000
0301
0000
0000
0000
0000
2100
0000
0000
0000
0000
3001
0000
0000
0000
0000
2100
0000
0000
0000
0000
3001
0000
0000
0000
0000
2100
0000
0000
0000
0000
3010
0000
0000
0000
0000
2001
0000
0000
,
0000
0000
3010
0000
0000
0000
0000
2001
0000
0000
0000
0000
3010
0000
0000
0000
0000
2001
0000
0000
0000
0000
3010
0000
0000
0000
0000
2001
0000
0000
0000
0000
3010
0000
0000
0000
0000
2001
0000
0000
0000
0000
3010
0000
0000
0000
0000
2001
,
0000
0000
0000
0000
3010
0000
0000
0000
0000
2001
0000
0000
0000
0000
3010
0000
0000
0000
0000
2001
0000
0000
0000
0000
3010
0000
0000
0000
0000
2001
0000
0000
0000
0000
3010
0000
0000
0000
0000
2001
0000
0000
0000
0000
3010
0000
0000
0000
,
0000
2001
0000
0000
0000
0000
3010
0000
0000
0000
0000
2001
0000
0000
0000
0000
3010
0000
0000
0000
0000
2001
0000
0000
0000
0000
3100
0000
0000
0000
0000
0021
0000
0000
0000
0000
0130
0000
0000
0000
0000
0021
0000
0000
0000
0000
0130
0000
,
0000
0000
0000
0021
0000
0000
0000
0000
0130
0000
0000
0000
0000
2010
0000
0000
0000
0000
3001
0000
0000
0000
0000
2010
0000
0000
0000
0000
3001
0000
0000
0000
0000
2010
0000
0000
0000
0000
3001
0000
0000
0000
0000
2010
0000
0000
0000
0000
,
3001
0000
0000
0000
0000
2100
0000
0000
0000
0000
3010
0000
0000
0000
0000
2100
0000
0000
0000
0000
3010
0000
0000
0000
0000
2100
0000
0000
0000
0000
3010
0000
0000
0000
0000
2100
0000
0000
0000
0000
3010
0000
0000
0000
0000
2100
0000
0000
,
0000
0000
3010
0000
0000
0000
0000
2100
0000
0000
0000
0000
3010
0000
0000
0000
0000
2100
0000
0000
0000
0000
3010
0000
0000
0000
0000
2100
0000
0000
0000
0000
3010
0000
0000
0000
0000
2100
0000
0000
0000
0000
3010
0000
0000
0000
0000
2100
,
0000
0000
0000
0000
3001
0000
0000
0000
0000
0210
0000
0000
0000
0000
0301
0000
0000
0000
0000
0210
0000
0000
0000
0000
0301
0000
0000
0000
0000
0210
0000
0000
0000
0000
1300
0000
0000
0000
0000
0021
0000
0000
0000
0000
1030
0000
0000
0000
,
0000
0021
0000
0000
0000
0000
1030
0000
0000
0000
0000
0021
0000
0000
0000
0000
1030
0000
0000
0000
0000
0021
0000
0000
0000
0000
1030
0000
0000
0000
0000
0021
0000
0000
0000
0000
1030
0000
0000
0000
0000
0021
0000
0000
0000
0000
1030
0000
,
0000
0000
0000
0021
0000
0000
0000
0000
1030
0000
0000
0000
0000
0021
0000
0000
0000
0000
1030
0000
0000
0000
0000
0021
0000
0000
0000
0000
1030
0000
0000
0000
0000
0021
0000
0000
0000
0000
1030
0000
0000
0000
0000
0021
0000
0000
0000
0000
,
1030
0000
0000
0000
0000
0021
0000
0000
0000
0000
0130
0000
0000
0000
0000
2010
0000
0000
0000
0000
3100
0000
0000
0000
0000
2010
0000
0000
0000
0000
3100
0000
0000
0000
0000
2010
0000
0000
0000
0000
3100
0000
0000
0000
0000
2010
0000
0000
,
0000
0000
3100
0000
0000
0000
0000
0021
0000
0000
0000
0000
1030
0000
0000
0000
0000
0021
0000
0000
0000
0000
1030
0000
0000
0000
0000
0021
0000
0000
0000
0000
1030
0000
0000
0000
0000
0021
0000
0000
0000
0000
1030
0000
0000
0000
0000
0210
,
0000
0000
0000
0000
1300
0000
0000
0000
0000
0210
0000
0000
0000
0000
1300
0000
0000
0000
0000
0210
0000
0000
0000
0000
1300
0000
0000
0000
0000
0210
0000
0000
0000
0000
1300
0000
0000
0000
0000
0210
0000
0000
0000
0000
1300
0000
0000
0000
,
0000
0210
0000
0000
0000
0000
1300
0000
0000
0000
0000
0210
0000
0000
0000
0000
1300
0000
0000
0000
0000
0210
0000
0000
0000
0000
0301
0000
0000
0000
0000
2100
0000
0000
0000
0000
3001
0000
0000
0000
0000
2100
0000
0000
0000
0000
3001
0000
,
0000
0000
0000
2100
0000
0000
0000
0000
3001
0000
0000
0000
0000
0210
0000
0000
0000
0000
1300
0000
0000
0000
0000
0210
0000
0000
0000
0000
1300
0000
0000
0000
0000
0210
0000
0000
0000
0000
1300
0000
0000
0000
0000
0210
0000
0000
0000
0000
,
1300
0000
0000
0000
0000
0210
0000
0000
0000
0000
1300
0000
0000
0000
0000
0210
0000
0000
0000
0000
1300
0000
0000
0000
0000
0210
0000
0000
0000
0000
1300
0000
0000
0000
0000
0210
0000
0000
0000
0000
1300
0000
0000
0000
0000
0210
0000
0000
,
0000
0000
1300
0000
0000
0000
0000
0210
0000
0000
0000
0000
1300
0000
0000
0000
0000
0210
0000
0000
0000
0000
1300
0000
0000
0000
0000
0210
0000
0000
0000
0000
1300
0000
0000
0000
0000
0210
0000
0000
0000
0000
0301
0000
0000
0000
0000
2100
,
0000
0000
0000
0000
3001
0000
0000
0000
0000
2100
0000
0000
0000
0000
3001
0000
0000
0000
0000
2100
0000
0000
0000
0000
3001
0000
0000
0000
0000
2100
0000
0000
0000
0000
3010
0000
0000
0000
0000
0201
0000
0000
0000
0000
0310
0000
0000
0000
,
0000
0201
0000
0000
0000
0000
0310
0000
0000
0000
0000
0201
0000
0000
0000
0000
0310
0000
0000
0000
0000
0201
0000
0000
0000
0000
1300
0000
0000
0000
0000
0210
0000
0000
0000
0000
1300
0000
0000
0000
0000
0210
0000
0000
0000
0000
1300
0000
,
0000
0000
0000
0210
0000
0000
0000
0000
1300
0000
0000
0000
0000
0210
0000
0000
0000
0000
1300
0000
0000
0000
0000
0210
0000
0000
0000
0000
1300
0000
0000
0000
0000
0210
0000
0000
0000
0000
1300
0000
0000
0000
0000
0210
0000
0000
0000
0000
,
1300
0000
0000
0000
0000
0210
0000
0000
0000
0000
1300
0000
0000
0000
0000
0021
0000
0000
0000
0000
0130
0000
0000
0000
0000
0021
0000
0000
0000
0000
0130
0000
0000
0000
0000
0021
0000
0000
0000
0000
0130
0000
0000
0000
0000
0021
0000
0000
,
0000
0000
1030
0000
0000
0000
0000
0201
0000
0000
0000
0000
1300
0000
0000
0000
0000
0201
0000
0000
0000
0000
1300
0000
0000
0000
0000
0201
0000
0000
0000
0000
1300
0000
0000
0000
0000
0201
0000
0000
0000
0000
1300
0000
0000
0000
0000
0201
,
0000
0000
0000
0000
1300
0000
0000
0000
0000
0201
0000
0000
0000
0000
1300
0000
0000
0000
0000
0201
0000
0000
0000
0000
1300
0000
0000
0000
0000
0201
0000
0000
0000
0000
1300
0000
0000
0000
0000
0201
0000
0000
0000
0000
1300
0000
0000
0000
,
0000
0201
0000
0000
0000
0000
1300
0000
0000
0000
0000
0201
0000
0000
0000
0000
1300
0000
0000
0000
0000
0201
0000
0000
0000
0000
0310
0000
0000
0000
0000
2100
0000
0000
0000
0000
3010
0000
0000
0000
0000
2100
0000
0000
0000
0000
3010
0000
,
0000
0000
0000
2100
0000
0000
0000
0000
3010
0000
0000
0000
0000
2100
0000
0000
0000
0000
3001
0000
0000
0000
0000
0210
0000
0000
0000
0000
0301
0000
0000
0000
0000
0210
0000
0000
0000
0000
0301
0000
0000
0000
0000
0210
0000
0000
0000
0000
,
0302
0000
0000
0000
0000
1003
0000
0000
0000
0000
0021
0000
0000
0000
0000
1030
0000
0000
0000
0000
0021
0000
0000
0000
0000
1030
0000
0000
0000
0000
0021
0000
0000
0000
0000
1030
0000
0000
0000
0000
0021
0000
0000
0000
0000
1030
0000
0000
,
0000
0000
0021
0000
0000
0000
0000
1030
0000
0000
0000
0000
0021
0000
0000
0000
0000
1030
0000
0000
0000
0000
0021
0000
0000
0000
0000
1030
0000
0000
0000
0000
0021
0000
0000
0000
0000
1030
0000
0000
0000
0000
0021
0000
0000
0000
0000
2030
,
0000
0000
0000
0000
3020
0000
0000
0000
0000
0000
0000
0000
0000
0000
0030
0000
0000
0000
0000
0000
0000
0002
0000
0000
0000
0000
0000
0000
0000
0000
0000
0000
0000
0000
0000
0000
0000
0000
0000
0000
0000
0000
0000
0000
0000
0000
0000
0000
,
0000
0000
0000
0000
0000
0000
0000
0000
0000
0000
0000
0000
0000
0000
0000
0000
0000
0000
0000
0000
0000
0000
0000
0000
0000
0000
0000
0000
0000
0000
0000
0000
0000
0000
0000
0000
0000
0003
0000
0000
0000
0000
0000
0000
0000
0000
0000
0000
,
0020
0000
0000
0000
0000
0000
0000
0000
0000
0000
0000
0000
0030
0000
0000
0000
0000
0000
0000
0000
0200
0000
0000
0000
0000
0000
0000
0000
0000
0000
0000
0000
0300
0000
0000
0000
0000
0000
0000
0002
0000
0000
0000
0000
0000
0000
0000
0000
,
0000
0000
0000
0000
0000
0000
0000
0000
0000
0000
0000
0000
0000
0000
0000
0000
0000
0000
0000
0000
0000
0000
0000
0000
0000
0000
0000
0000
0000
0000
0000
0000
0000
0000
0000
0000
0000
0000
0000
0000
0000
0000
0000
0003
0000
0000
0000
0000
,
0000
0000
0200
0000
0000
0000
0000
0000
0000
0300
0000
0000
2000
0000
0000
0000
0000
0000
0000
0000
0000
0000
0000
0000
,
0000
0000
0000
0000
0000
0000
0000
0000
0000
0000
0000
0000
0000
3000
0000
0000
,
0002
0000
0000
0000
0000
0000
0000
0000
0000
0000
0000
0000
0000
0003
0000
0000
0000
0000
0000
0020
0000
0000
0000
0000
0000
0000
0000
0000
0000
0000
0000
0000
0000
0000
0000
0000
0000
0030
0000
0000
0000
0000
0000
0200
0000
0000
0000
0000
,
0000
0000
0000
0000
0000
0000
0000
0000
0000
0000
0000
0000
0000
0000
0000
0000
0000
0000
0000
0000
0000
0000
0000
0000
0000
0000
0000
0000
0000
0000
0000
0000
0000
0000
0000
0000
0000
0000
0000
0000
0000
0000
0000
0300
0000
0000
0000
0000
,
0000
2000
0000
0000
0000
0000
0000
0000
0000
0000
0000
0000
0000
3210
0000
0000
0000
0000
0000
0302
0000
0000
0000
0000
0000
0000
0000
0000
0000
0000
0000
0000
0000
0000
0000
0000
0000
1100
0000
0000
0000
0000
0000
0000
0000
0000
0000
0000
,
0000
0000
0000
0000
0000
0000
0000
0000
0000
0000
0000
0000
0110
0000
0000
0000
0000
0000
0000
0000
0000
0000
0000
0000
0000
0000
0000
0000
0000
0000
0000
0000
0000
0000
0000
2013
0000
0000
0000
0000
0000
0000
0000
0000
0000
0000
0000
3200
,
0000
0000
0000
0000
0000
0000
0000
0000
0000
0000
0000
2310
0000
0000
0000
0000
0000
0000
0000
3020
0000
0000
0000
0000
0000
0000
0000
0000
0000
0000
0000
0000
0000
0000
0000
2130
0000
0000
0000
0000
3200
0000
0000
0000
0000
0000
0000
0000
,
0000
0000
0000
0000
0000
0000
0000
0000
0000
0000
0000
0000
0000
1010
0000
0000
0000
0000
0000
0000
0000
0000
0000
0000
0000
0000
0000
0000
0000
0000
0000
0000
0000
0000
0000
0000
0012
0000
0000
0000
0000
0000
0000
0300
0000
0000
0000
0000
,
0023
0000
0000
0000
0000
0000
0000
0000
0000
0000
0000
2130
0000
0000
0000
0000
0000
0000
0000
3200
0000
0000
0000
0000
0000
0000
0000
0000
0000
0000
0000
0000
0000
0000
0000
0011
0000
0000
0000
0000
0000
0000
0000
0000
0000
0000
0000
0000
,
0000
0000
0000
0000
0000
0000
0000
0000
0000
0000
0000
0000
1001
0000
0000
0000
0000
0000
0000
0000
0000
0000
0000
0000
0000
0000
0000
0000
0000
0000
0000
0000
0000
0000
0000
0000
0000
1320
0000
0000
0000
0000
0000
0000
0000
0000
0000
0000
,
2030
0000
0000
0000
0000
0000
0000
0000
0000
0000
0000
3210
0000
0000
0000
0000
0000
0000
0000
0000
0302
0000
0000
0000
0000
0000
0000
0000
0000
0000
0000
0000
0000
0000
0000
0000
2103
0000
0000
0000
3020
0000
0000
0000
0000
0000
0000
0000
,
0000
0000
0000
0000
0000
0000
0000
0000
0000
0000
0000
0000
1001
0000
0000
0000
0000
0000
0000
0000
0000
0000
0000
0000
0000
0000
0000
0000
0000
0000
0000
0000
0000
0000
0000
0102
0000
0000
0000
0000
0000
0000
0030
0000
0000
0000
0000
0000
,
0000
0203
0000
0000
0000
0000
0000
0000
0000
0000
2010
0000
0000
0000
0000
0000
0300
0000
0000
0000
0000
0000
0000
3002
0000
0000
0000
0000
0000
0000
0000
0000
0000
0000
0000
0000
1100
0000
0000
0000
0000
0000
0000
0000
0000
0000
0000
0000
,
0000
0000
0000
0000
0000
0000
0000
0000
0000
0000
0000
0110
0000
0000
0000
0000
0000
0000
0000
0000
0000
0000
0000
0000
0000
0000
0000
0000
0000
0000
0000
0000
0000
0000
0000
1023
0000
0000
0000
0000
0000
0000
0000
0000
0000
0000
0000
2030
,
0000
0000
0000
0000
0000
0000
0000
0000
0000
0000
0000
0210
0000
0000
0000
0000
0000
3000
0000
0000
0000
0000
0000
0320
0000
0000
0000
0000
0000
0000
0000
0000
0000
0000
0000
0000
2130
0000
0000
0000
0000
0000
3200
0000
0000
0000
0000
0000
,
0000
0000
0000
0000
0000
0000
0000
0000
0000
0000
1010
0000
0000
0000
0000
0000
0000
0000
0000
0000
0000
0000
0000
0000
0000
0000
0000
0000
0000
0000
0000
0000
0000
0000
0012
0000
0000
0000
0000
0000
0000
0300
0000
0000
0000
0000
0000
0023
,
0000
0000
0000
0000
0000
0000
2130
0000
0000
0000
3002
0000
0000
0000
0000
0000
0000
1100
0000
0000
0000
0000
0000
0000
,
0000
0000
0000
0000
0000
0000
0000
0000
0000
0000
0000
1010
0000
0000
0000
0000
0000
0000
0000
0000
0000
0000
0000
0000
0000
0000
0000
0000
0000
0000
0000
0000
0000
0000
0120
0000
0000
0000
0000
0000
0003
0000
0000
0000
0000
0000
0000
0230
,
0000
0000
0000
0000
0000
0000
0000
0000
0000
0000
0000
2010
0000
0000
0000
0300
0000
0000
0000
0000
0000
3002
0000
0000
0000
0000
0000
0000
0000
0000
0000
0000
0000
0000
2013
0000
0000
0000
0000
0000
0000
0000
3200
0000
0000
0000
0000
0000
,
0000
0000
0000
0000
0000
0000
0000
0000
0000
0000
0011
0000
0000
0000
0000
0000
0000
0000
0000
0000
0000
0000
0000
0000
0000
0000
0000
0000
0000
0000
0000
0000
0000
0000
0000
1010
0000
0000
0000
0000
0000
0000
0300
0000
0000
0000
0000
0000
,
1002
0000
0000
0000
0000
0000
0000
0000
0000
0000
0000
0000
0000
1010
0000
0000
0000
0000
0000
0000
0000
0000
0000
0010
0000
0000
0000
0000
0000
0000
0000
0000
,
0000
0000
0000
0000
0000
0000
2100
0000
0000
0000
0000
0000
0000
0000
0000
0000
0003
0000
0000
0000
0000
0000
0000
0000
0000
0000
0000
0000
0000
0000
0000
0000
0000
0000
0000
0000
0000
0000
0000
0000
0000
0000
0000
0000
0000
0000
0000
0000
0000
0000
0000
0000
0000
0000
0000
0000
0000
0000
0000
0000
0000
0000
0000
0000
0000
0000
0000
0000
0000
0000
0000
0000
3100
0000
0000
0000
0000
0000
0000
0000
0000
0000
0000
0000
0000
0000
0000
0000
0000
0000
0000
0000
0000
0000
0000
0000
0000
0000
0000
0000
0000
0000
0000
0000
0000
0000
0000
0000
0000
0000
0000
0000
0000
0000
0000
0000
0000
0000
0000
0000
0000
0000
0000
0000
0000
0000
0000
0000
0000
0000
0000
0000
0000
0000
0000
0000
0000
0000
2001
0000
0000
0000
0000
0000
0000
0000
0000
0000
0000
0000
0000
0000
0000
0000
0000
0000
0000
0000
0000
0000
0000
0000
0000
0000
0000
0000
0000
0000
0000
0000
0000
0000
0000
0000
0000
0000
0000
0000
0000
0000
0000
0000
0000
0000
0000
0000
0000
0000
0000
0000
0000
0000
,
0000
0000
3010
0000
0000
0000
0000
0000
0000
0000
0000
0000
0000
2100
0000
0000
0000
0000
0000
0000
0000
0000
0000
3010
0000
0000
0000
0000
0000
0000
0000
0000
,
0000
0000
1020
0000
0000
0000
0000
0030
0000
0000
0000
0000
0201
0000
0000
0000
0000
0300
0000
0000
0000
0000
2010
0000
0000
0000
0000
3000
0000
0000
0000
0000
,
0000
0000
0000
0000
0210
0000
0000
0000
0000
0000
0000
0000
0000
0000
0000
0000
0000
0000
0000
0000
0000
0000
0000
0000
0000
0000
0000
0000
0300
0000
0000
0000
0000
0000
0000
0000
0000
0000
0000
0000
0000
0000
0000
0000
0000
0000
0000
0000
0000
0000
0000
0000
0000
0000
0000
0000
0000
0000
0000
0000
0000
0000
0000
0000
0000
0000
0000
0000
0000
0000
0000
0000
1020
0000
0000
0000
0000
0000
0000
0000
0000
0000
0000
0000
0000
0000
0000
0000
0000
0000
0000
0000
0000
0000
0000
0000
0000
0000
0000
0000
0000
0000
0030
0000
0000
0000
0000
0000
0000
0000
0000
0000
0000
0000
0000
0000
0000
0000
0000
0000
0000
0000
0000
0000
0000
0000
0000
0000
0000
0000
0000
0000
0000
0000
0000
0000
0201
0000
0000
0000
0000
0000
0000
0000
0000
0000
0000
0000
0000
0000
0000
0000
0000
0000
0000
0000
0000
0000
0000
0000
0000
0000
0000
0000
0000
0000
0000
0000
0300
0000
0000
0000
0000
0000
0000
0000
0000
0000
0000
0000
0000
0000
0000
0000
0000
0000
0000
0000
0000
0000
0000
0000
,
0000
0000
2010
0000
0000
0000
0000
0000
0000
3000
0000
0000
0000
0000
0000
0000
0000
0000
0102
0000
0000
0000
0000
0000
0000
0000
0000
0000
0000
0000
0000
0000
0000
0000
0000
0000
1100
0000
0000
0000
0000
0000
0000
0000
0000
0000
0000
0000
,
0000
0000
0000
0000
0000
0000
0000
0000
0000
0000
0000
0000
0000
0000
0000
0000
0000
0000
0010
0000
0000
0000
0000
0000
0000
0000
0000
0000
0000
0000
0000
0000
0000
0000
0000
0000
0000
0000
0000
0000
0000
0000
0000
0000
0000
0000
0000
0000
0000
0000
0000
0000
0000
0000
0000
0000
0000
0000
0000
0000
0000
0000
0000
0000
0000
0000
0000
0000
0000
0000
0000
0000
0000
0000
0000
0000
0000
0000
0000
0000
0000
0000
0000
0000
1010
0000
0000
0000
0000
0000
0000
0000
0000
0000
0000
0000
0000
0000
0000
0000
0000
0000
0000
0000
0000
0000
0000
0000
0000
0000
0000
0000
0000
0000
0000
0000
0000
0000
0000
0000
0000
0000
0000
0000
0000
0000
0000
0000
0000
0000
0000
0000
0000
0000
0000
0000
0000
0000
0000
0000
0000
0000
0000
0000
0100
0000
0000
0000
0000
0000
0000
0000
0000
0000
0000
0000
0000
0000
0000
0000
0000
0000
0000
0000
0000
0000
0000
0000
0000
0000
0000
0000
0003
0000
0000
0000
0000
0000
0000
0000
0000
0000
0000
0000
0000
0000
0000
0000
0000
0000
0000
0000
,
0000
0000
2001
0000
0000
0000
0000
0000
0000
0000
0000
0000
0000
3010
0000
0000
0000
0000
0000
0000
0000
0000
0000
0000
1100
0000
0000
0000
0000
0000
0000
0000
,
0000
0000
0000
0000
0202
0000
0000
0000
0003
0320
0000
0000
0000
0030
0200
0000
0000
0000
0300
2000
0000
0000
0000
3000
0020
0000
0000
0000
0030
0200
0000
0000
,
0000
0300
0002
0000
0000
0000
0003
0020
0000
0000
0000
0030
2000
0000
0000
0000
3000
0200
0000
0000
0000
0300
0002
0000
0000
0000
0003
0020
0000
0000
0000
0030
,
2000
0000
0000
0000
0000
0000
0000
0000
0000
0000
0000
0000
0000
0000
0000
0000
0000
0000
0000
0000
0000
0000
0000
0000
0000
0000
0000
0000
0000
0000
0000
0000
0000
0000
0000
0000
0000
0000
0000
0000
0000
0000
0000
0000
0000
0000
0000
0000
0000
0000
0000
0000
0000
0000
0000
0000
0000
0000
0000
0000
0000
0000
0000
0000
0000
0000
3000
0000
0220
0000
0000
0000
0000
0000
0000
0000
0000
0000
0000
0000
0000
0000
0000
0000
0000
0000
0000
0000
0000
0000
0000
0000
0000
0000
0000
0000
0000
0000
0000
0000
0000
0000
0000
0000
0000
0000
0000
0000
0000
0000
0000
0000
0000
0000
0000
0000
0330
0000
0000
0000
0000
0000
0000
0000
0000
0000
0000
0000
0000
0000
0000
0000
0000
0000
0000
0000
2001
0000
0000
0000
0000
0000
0000
0000
0000
0000
0000
0000
0000
0000
0000
0000
3020
0000
0000
0000
0000
0000
0000
0000
0000
0000
0000
0000
0000
0000
0000
0000
0230
0000
0000
0000
0000
0000
0000
0000
0000
0000
0000
0000
0000
0000
0000
0000
0310
0000
0000
0000
0000
0000
0000
0000
,
0000
2001
0000
3200
0000
0320
0000
0032
0000
0023
0000
0230
0000
1300
0000
0201
0000
0320
0000
0230
0000
2300
0000
3200
,
0000
0320
0000
0032
0000
2003
0000
3100
0000
0021
0000
0230
0000
2300
0000
3200
0000
0320
0000
2030
0000
3200
0000
0310
,
0000
0201
0000
0320
0000
0230
0000
2300
0000
3200
0000
2300
0000
3200
0000
0310
0000
2100
0000
3002
0000
0023
0000
0230
,
0000
0302
0000
0023
0000
0230
0000
1300
0000
0021
0000
0230
0000
0320
0000
2030
0000
3200
0000
0302
0000
0023
0000
0130
,
0000
2001
0000
3020
0000
0230
0000
2300
0000
3002
0000
0203
0000
0320
0000
1030
0000
0021
0000
0230
0000
0320
0000
0032
,
0000
2003
0000
3200
0000
0320
0000
0130
0000
2001
0000
3020
0000
0230
0000
0302
0000
0023
0000
2030
0000
3200
0000
0310
,
0000
2100
0000
3002
0000
0023
0000
0230
0000
0302
0000
0023
0000
2030
0000
3100
0000
0021
0000
0230
0000
0302
0000
2003
,
0000
3020
0000
0230
0000
0302
0000
2003
0000
3100
0000
2001
0000
3200
0000
0320
0000
0230
0000
2300
0000
3002
0000
0023
,
0000
0130
0000
0021
0000
2030
0000
3200
0000
0320
0000
0230
0000
2300
0000
3010
0000
0201
0000
2300
0000
3020
0000
0230
,
0000
0301
0000
0210
0000
0001
0000
0310
0000
2001
0000
0010
0000
0100
0000
3020
0000
0032
0000
1000
0000
0100
0000
0010
,
0000
1003
0000
0120
0000
0001
0000
1000
0000
0130
0000
1020
0000
0000
0000
0000
0000
0000
0000
1001
0000
0000
0000
0000
,
0000
0000
0000
0100
0000
0000
0000
0000
0000
0000
0000
1100
0000
0000
0000
0000
0000
0000
0000
0001
0000
0000
0000
0000
,
0000
0000
0000
0101
0000
0000
0000
0000
0000
0000
0000
1000
0000
0000
0000
0000
0000
0000
0000
0131
0000
0000
0000
0000
,
0000
0000
0000
2001
0000
3020
0000
0230
0000
1300
0000
0021
0000
0230
0000
2300
0000
3002
0000
0023
0000
0230
0000
1300
,
0000
0201
0000
0320
0000
2030
0000
3200
0000
0320
0000
0032
0000
0013
0000
2100
0000
3002
0000
0203
0000
0320
0000
0032
,
0000
2003
0000
3100
0000
2010
0000
3200
0000
0302
0000
0203
0000
0302
0000
2003
0000
3100
0000
0011
0000
0000
0000
0000
,
0000
0000
0000
2001
0000
0000
0000
0000
0000
0000
0000
3100
0000
0000
0000
0000
0000
0000
0000
2010
0000
0000
0000
0000
,
0000
0000
0000
3100
0000
0000
0000
0000
0000
0000
0000
0021
0000
0000
0000
0000
0000
0000
0000
0130
0000
0000
0000
0000
,
0000
0000
0000
1010
0000
0000
0000
0000
0000
0000
2001
0000
3020
0000
0230
0000
0301
0000
0210
0000
2300
0000
3002
0000
,
0023
0230
0302
1003
0201
0320
0230
0320
2030
3200
1300
0210
,
0302
0023
2030
3200
0302
1003
0021
0230
0302
2003
3200
0302
,
1003
0021
0230
0320
0031
2010
0000
0000
0000
3001
0000
0000
,
0000
2100
0000
0000
0000
3010
0000
0000
0000
0201
0000
0000
,
0000
0310
0000
0000
0000
1100
0000
0000
0000
2001
3020
0230
,
0310
2001
3200
0302
2003
3002
0023
0130
0021
2030
3200
0320
,
2030
3200
0302
0023
0130
0021
2030
3200
0320
0032
0203
2300
,
3001
2010
3200
0302
1003
0011
0000
0000
0000
0000
0021
0000
,
0000
0000
0000
1030
0000
0000
0000
0000
0000
0000
0000
0210
0000
0000
0000
0000
0000
0000
0000
0301
0000
0000
0000
0000
,
0000
0000
0000
2010
0000
0000
0000
0000
0000
0000
0000
3100
0000
0000
0000
0000
0000
0000
0000
0011
0000
0000
0000
0000
,
0000
0000
0000
2001
0000
3020
0000
0230
0000
0302
0000
0013
0000
2001
0000
3200
0000
0302
0000
0203
0000
0320
0000
2030
,
0000
3100
0000
2001
0000
3020
0000
0230
0000
0302
0000
0023
0000
2030
0000
3200
0000
0320
0000
1030
0000
0210
0000
0302
,
0000
0023
0000
0230
0000
2300
0000
3020
0000
0230
0000
0302
0000
0023
0000
0130
0000
0000
1001
0000
0000
0000
0000
0000
,
0000
2010
0000
0000
3001
0000
0000
0210
,
0000
0000
0000
1300
0000
0000
0000
0021
0000
0000
0000
0130
,
0000
0000
0000
0000
0000
0000
2010
0000
0000
0000
0000
0000
0000
0000
0000
3100
0000
0000
0000
0000
0000
0000
0000
1021
,
0000
0000
0000
0030
0000
0000
0000
0201
0000
0000
0000
0300
0000
0000
0000
2011
0000
0000
0000
0000
3000
0000
0000
0000
,
0021
0000
0000
0000
0030
0000
0000
0000
1201
0000
0000
0000
0300
0000
0000
0000
0000
0021
0000
0000
0000
0030
0000
0000
,
0000
1201
0000
0000
0000
0300
0000
0000
0000
2001
0000
0000
0000
0000
0000
0000
0011
0000
0000
0000
0000
0000
0000
0000
,
0000
0000
0100
0000
0000
0000
0000
0000
0000
0000
0000
0011
0000
0000
0000
0000
0000
0000
0000
0000
0000
0010
0000
0000
,
0000
0000
0000
0000
0000
0101
0000
0000
0000
0000
0000
0000
0000
0001
0000
0000
0000
3000
0000
0000
0000
0000
0210
0000
,
0000
0000
0000
0000
0000
0000
0310
0000
0000
0000
0000
0000
0000
0000
0000
2101
0000
0000
0000
3000
0000
0000
0000
0021
,
0000
0000
0000
0030
0000
0000
0000
1201
0000
0000
0000
0000
0300
0000
0000
0000
2001
0000
0000
0000
3000
0000
0000
0000
,
0121
0000
0030
0000
0201
0000
0300
0000
1021
0000
0030
0000
,
0201
0000
0000
0000
0000
0000
0000
0000
1010
0000
0000
0000
0000
0000
0000
0000
0000
1000
0000
0000
0000
0000
0000
0000
,
0000
0000
0000
1001
0000
0000
0000
0000
0000
0000
0000
0010
0000
0000
0000
0000
0000
0000
0000
0000
1010
0000
0000
0000
,
0000
0000
0000
0000
0001
0000
0000
0300
0000
0000
0000
0000
0210
0000
0000
0000
0000
0000
0000
0000
0000
1300
0000
0000
,
0000
0000
0000
0000
0000
1201
0000
0000
0000
0000
0300
0000
0000
0000
2001
0000
0000
0000
3000
0000
0000
0000
0211
0000
,
0000
0000
0300
0000
0000
0000
1002
0000
0000
0000
0003
0000
0000
0000
1210
0000
0000
0000
0000
0300
0000
0000
0000
2001
,
0000
0000
0000
3000
0000
0000
0000
0211
0000
0000
0000
0300
0000
0000
0000
2001
0000
0000
0000
0000
0000
0000
0000
0000
,
0011
0000
0000
0000
0000
0000
0000
0000
0000
0100
0000
0000
0000
0000
0000
0000
0000
0101
0000
0000
0000
0000
0000
0000
,
0000
0000
0010
0000
0000
0000
0000
0000
0000
0000
0101
0000
0000
0000
0000
0000
0000
0000
0000
0001
0000
0000
0000
0000
,
0000
0000
0000
0120
0000
0000
0000
3000
0000
0000
0000
0000
0130
0000
0000
0000
0000
0000
0000
0000
1021
0000
0000
0000
,
0030
0000
0000
0000
0201
0000
0000
0000
0300
0000
0000
0000
0000
2011
0000
0000
0000
0000
3000
0000
0000
0000
0102
0000
,
0000
0003
0000
2110
0000
3000
0000
0210
0000
0300
0000
1021
,
0000
0000
0000
0030
0000
0000
0102
0000
0000
0000
0000
0000
0000
0000
1010
0000
0000
0000
0000
0000
0000
0000
0100
0000
,
0000
0000
0000
0000
0000
0000
0000
1100
0000
0000
0000
0000
0000
0000
0000
0000
0010
0000
0000
0000
0000
0000
0000
0000
,
0000
1100
0000
0000
0000
0000
0000
0000
0000
0000
0010
0000
0000
0000
0003
0000
0000
0000
2001
0000
0000
0000
0000
0000
,
0000
0000
0000
3010
0000
0000
0000
0000
0000
0000
0000
0000
1021
0000
0000
0000
0030
0000
0000
0000
2100
0000
0000
0000
,
0000
3000
0000
0000
0121
0000
0000
0000
0000
0030
0000
0000
0201
0000
0000
0000
0300
0000
0000
0000
0000
1012
0000
0000
,
0000
0003
0000
0000
0000
0120
0000
0000
0000
0000
0030
0000
0000
1201
0000
0000
0000
0300
0000
0000
0000
0021
0000
0000
,
0000
0000
0000
0000
0000
0000
1001
0000
0000
0000
0000
0000
0000
0000
0100
0000
0000
0000
0000
0000
0000
0000
0000
1001
,
0000
0000
0000
0000
0000
0000
0000
0100
0000
0000
0000
0000
0000
0000
0000
0101
0000
0000
0000
0000
0000
0000
0000
0000
,
0001
0000
0000
0000
0030
0000
0000
0000
2100
0000
0000
0000
0000
0000
0000
0000
0000
3100
0000
0000
0000
0000
0000
0000
,
0000
2011
0000
0000
0000
3000
0000
0000
0000
0120
0000
0000
0000
0030
0000
0000
0000
0000
1201
0000
0000
0000
0300
0000
,
0000
0000
0000
2001
0000
0000
0000
3000
0000
0000
0000
0121
0000
0000
0000
0000
0030
0000
0000
0102
0000
0000
0000
0000
,
0003
0000
1120
0000
0030
0000
0201
0000
0000
0000
1010
0000
,
0000
0000
0000
0000
1000
0000
0000
0000
0000
0000
0000
0000
0000
0011
0000
0000
0000
0000
0000
0000
0000
0000
0010
0000
,
0000
0000
0000
0000
0000
0000
0000
1001
0000
0000
0000
0000
0000
0000
0000
0010
0000
0000
0300
0000
0000
0000
0000
2100
,
0000
0000
0000
0000
0000
0000
0000
0000
3010
0000
0000
0000
0000
0000
0000
1021
0000
0000
0000
0000
0030
0000
0000
0000
,
0201
0000
0000
0000
0300
0000
0000
0000
2011
0000
0000
0000
0000
3000
0000
0000
0000
0021
0000
0000
0000
0030
0000
0000
,
0000
1201
0000
0000
0000
0300
0000
0000
0000
0000
0021
0000
0000
0000
0030
0000
0000
0000
2101
0000
0000
0000
0000
3000
,
0000
0000
0000
0012
0000
0000
0000
0000
0000
0000
0000
1010
0000
0000
0000
0000
0000
0000
0000
0000
0100
0000
0000
0000
,
0000
0000
0000
0000
0110
0000
0000
0000
0000
0000
0000
0000
0100
0000
0000
0000
0000
0000
0000
0000
0000
2010
0000
0000
,
0000
0003
0000
0000
0000
0000
3001
0000
0000
0000
0000
0000
0000
0000
0210
0000
0000
0000
0000
0000
0000
0000
1300
0000
,
0000
0000
0000
0000
0000
0000
0000
0121
0000
0000
0000
0030
0000
0000
2001
0000
0000
0000
3000
0000
0000
0000
0211
0000
,
0000
0000
0300
0000
0000
0000
0000
1020
0000
0000
0000
0030
0000
0000
0000
0000
2101
0000
0000
0000
3000
0000
0000
0000
,
0021
0000
0000
0000
0030
0000
0000
0000
2102
0000
0000
0000
0000
3000
0000
0000
0000
0203
0000
0000
0000
0000
0000
0000
,
0000
0000
0000
0000
,
0000
0000
0000
0000
,
0000
0000
0000
0000
,
0000
0000
0000
0000
0000
0000
0000
0000
0000
0000
0000
0000
0000
0000
0000
0000
0000
0000
0000
0000
0000
0000
0000
0000
0000
0000
0000
0000
0000
0000
0000
0000
0000
0000
0000
0000
0000
0000
0000
0000
0000
0300
0000
0000
0000
0000
0000
0020
0032
0000
0000
0203
0000
0000
0320
0000
0000
2030
0000
0000
0000
3020
0000
0000
,
0230
0000
0000
0302
0000
0000
2003
0000
0000
3020
0000
0000
0000
0230
0000
0000
0302
0000
0000
0023
0000
0000
0230
0000
0000
0000
0302
0000
0000
2003
0000
0000
3020
0000
0000
0230
0000
0000
0000
0320
0000
0000
2030
0000
0000
3002
0000
0000
0203
0000
0000
0320
0000
0000
0000
2030
0000
0000
3002
0000
0000
0203
0000
0000
,
0320
0000
0000
0000
2030
0000
0000
3200
0000
0000
0320
0000
0000
2030
0000
0000
3002
0000
0000
0000
0023
0000
0000
0230
0000
0000
0302
0000
0000
0000
2003
0000
0000
3020
0000
0230
0000
0000
0000
0302
0000
0000
2003
0000
0000
3020
0000
0000
0230
0000
0000
0320
0000
0000
0000
2030
0000
0000
3002
0000
0000
0203
0000
0000
,
0320
0000
0000
2030
0000
0000
0000
3200
0000
0000
2300
0000
0000
3200
0000
0000
0000
0302
0000
0000
0023
0000
0000
0032
0000
0000
0023
0000
0000
0230
0000
0000
0302
0000
0000
0000
2003
0000
0000
3020
0000
0000
0000
0230
0000
0000
0302
0000
0000
2003
0000
0000
3020
0000
0000
0230
0000
0000
0302
0000
0000
2003
0000
0000
,
0000
3020
0000
0000
0230
0000
0000
0320
0000
0000
0000
0230
0000
0000
0320
0000
0000
2030
0000
0000
3002
0000
0000
0203
0000
0000
0320
0000
0000
2030
0000
0000
3200
0000
0000
0302
0000
0000
0023
0000
0000
0230
0000
0000
0000
0000
0320
0000
0000
2030
0000
0000
3002
0000
0000
0203
0000
0000
0000
0320
0000
0000
2030
0000
,
3002
0000
0000
0000
0203
0000
0000
0000
0320
0000
2030
0000
0000
0000
3020
0000
0000
0230
0000
0000
0302
0000
0000
0203
0000
0000
0320
0000
0000
0000
1030
0000
0000
2222
3333
0000
0000
0000
0000
0000
0000
0000
0000
0000
0000
0000
0000
0000
0000
0000
0000
0000
0000
0000
0000
0000
0000
0000
0000
0000
0000
0000
0000
0000
;

//---------------dance-single - La cagada----------------
#NOTES:
     dance-single:
     La cagada:
     Hard:
     13:
     1.000,1.000,1.000,0.515,1.000,1925.000,618.000,201.000,0.000,95.000:
0000
0000
0000
0000
0000
0000
0000
0000
0000
0000
0000
0000
0000
0000
0000
0000
0000
0000
0000
0000
0000
0000
0000
0000
0000
0100
0000
0000
0000
1000
0000
0000
0000
0100
0000
0000
0000
0010
0000
0000
0000
0001
0000
0000
0000
0010
0000
0000
,
0000
0100
0000
0000
0000
0010
0000
0000
0000
0100
0000
0000
0000
1000
0000
0000
0000
0100
0000
0000
0000
0010
0000
0000
0000
0100
0000
0000
0000
1000
0000
0000
0000
0100
0000
0000
0000
0010
0000
0000
0000
0001
0000
0000
0000
0010
0000
0000
,
0000
0100
0000
0000
0000
0010
0000
0000
0000
0001
0000
0000
0000
0010
0000
0000
0000
0100
0000
0000
0000
1000
0000
0000
0000
0100
0000
0000
0000
0010
0000
0000
0000
0100
0000
0000
0000
1000
0000
0000
0000
0100
0000
0000
0000
0010
0000
0000
,
0000
0100
0000
0000
0000
0010
0000
0000
0000
0001
0000
0000
0000
0010
0000
0000
0000
0100
0000
0000
0000
0010
0000
0000
0000
0001
0000
0000
0000
0010
0000
0000
0000
0100
0000
0000
0000
0010
0000
0000
0000
0001
0000
0000
0000
0010
0000
0000
,
0000
0100
0000
0000
0000
0010
0000
0000
0000
0001
0000
0000
0000
0010
0000
0000
0000
0100
0000
0000
0000
0010
0000
0000
0000
0100
0000
0000
0000
1000
0000
0000
0000
0100
0000
0000
0000
0010
0000
0000
0000
0001
0000
0000
0000
0010
0000
0000
,
0000
0000
0000
0000
0100
0000
0000
0000
0000
0000
0000
0000
0000
0000
0000
0000
0000
0000
0000
0000
1000
0000
0000
0000
0000
0000
0000
0000
0000
0000
0000
0000
0000
0000
0000
0000
0100
0000
0000
0000
0000
0000
0000
0000
0000
0000
0000
0000
0000
0000
0000
0000
0010
0000
0000
0000
0000
0000
0000
0000
0000
0000
0000
0000
0000
0000
0000
0000
0100
0000
0000
0000
0000
0000
0000
0000
0000
0000
0000
0000
0000
0000
0000
0000
1000
0000
0000
0000
0000
0000
0000
0000
0000
0000
0000
0000
0000
0000
0000
0000
0100
0000
0000
0000
0000
0000
0000
0000
0000
0000
0000
0000
0000
0000
0000
0000
0010
0000
0000
0000
0000
0000
0000
0000
0000
0000
0000
0000
0000
0000
0000
0000
0001
0000
0000
0000
0000
0000
0000
0000
0000
0000
0000
0000
0000
0000
0000
0000
0010
0000
0000
0000
0000
0000
0000
0000
0000
0000
0000
0000
0000
0000
0000
0000
0100
0000
0000
0000
0000
0000
0000
0000
0000
0000
0022
0000
0000
0033
0000
0000
0000
0000
0000
0000
0000
0000
0000
0000
0000
0000
0000
0000
,
0000
0000
0000
0000
0000
2200
3300
0000
0000
0000
2200
3300
0000
0000
0000
0000
0000
0000
0000
0000
0000
0000
0000
0000
0000
0000
0220
0330
0000
0000
0000
0000
0000
0000
0000
0000
2002
3003
0000
0000
0000
2002
3003
0000
0000
0000
0000
0000
0000
0000
0000
0000
0000
0000
0000
0000
0000
2200
3300
0000
0000
0000
0000
0000
,
0000
0000
0000
0000
0000
0000
0000
0000
0000
0000
0000
0000
0022
0000
0000
0033
0000
0000
0000
0000
0000
0000
0000
0000
0000
0000
0000
0022
0000
0000
0033
0000
0000
0000
0000
0000
0000
0000
0000
0000
0000
0000
0000
0000
0000
0022
0000
0000
0033
0000
0000
0000
0000
0000
0000
0000
0000
0000
0000
0000
1000
0000
0000
0000
0000
0000
0000
0000
0000
0000
0000
0000
0000
0000
0000
0000
0100
0000
0000
0000
0000
0000
0000
0000
0000
0000
0000
0000
0000
0000
0000
0000
0010
0000
0000
0000
0000
0000
0000
0000
0000
0000
0000
0000
0000
0000
0000
0000
0001
0000
0000
0000
0000
0000
0000
0000
0000
0000
0000
0000
0000
0000
0000
0000
0010
0000
0000
0000
0000
0000
0000
0000
0000
0000
0000
0000
0000
0000
0000
0000
0100
0000
0000
0000
0000
0000
0000
0000
0000
0000
0000
0000
0000
0000
0000
0000
1000
0000
0000
0000
0000
0000
0000
0000
0000
0000
0000
0000
0000
0000
0000
0000
0100
0000
0000
0000
0000
0000
0000
0000
0000
0000
0000
0000
0000
0000
0000
0000
0001
0000
0000
0000
,
0000
0000
0000
0000
0000
0000
0000
0000
0000
0000
0000
0000
0100
0000
0000
0000
0000
0000
0000
0000
0000
0000
0000
0000
0000
0000
0000
0000
0010
0000
0000
0000
0000
0000
0000
0000
0000
0000
0000
0000
0000
0000
0000
0000
0001
0000
0000
0000
0000
0000
0000
0000
0000
0000
0000
0000
0000
0000
0000
0000
1000
0000
0000
0000
0000
0000
0000
0000
0000
0000
0000
0000
0000
0000
0000
0000
0010
0000
0000
0000
0000
0000
0000
0000
0000
0000
0000
0000
0000
0000
0000
0000
0001
0000
0000
0000
0000
0000
0000
0000
0000
0000
0000
0000
0000
0000
0000
0000
2020
0000
0000
3030
0000
0000
0000
0000
0000
0000
0000
0000
0000
0000
0000
0000
0000
0000
0000
0000
0000
0000
0000
0000
0000
0000
0000
0000
0000
0000
0000
0000
0000
0202
0000
0000
0303
0000
0000
0000
0000
0000
0000
0000
0000
0000
0000
0000
0000
0000
0000
0202
0000
0000
0303
0000
0000
0000
0000
0000
0000
0000
0000
0000
0000
0000
0000
0000
0000
0000
0000
0000
0000
0000
0000
0000
0000
0000
0000
0000
0000
0000
0000
0000
,
0000
0000
0000
0000
0000
0000
0000
0000
0000
0000
0000
0000
0000
0000
0000
2200
0000
0000
3300
0000
0000
0000
0000
0000
0000
0000
0000
0000
0000
0000
0000
0000
0000
0000
0000
0000
0000
0000
0000
0000
0000
0000
0000
0000
0000
2020
0000
0000
3030
0000
0000
0000
0000
0000
0000
0000
0000
0000
0000
0000
0000
0000
0000
2020
0000
0000
3030
0000
0000
0000
0000
0000
0000
0000
0000
0000
0000
0000
0000
0000
0000
0000
0000
0000
0000
0000
0000
0000
0000
0000
0000
0000
0000
0000
0000
0000
0000
0000
0000
0000
0000
0000
0000
0000
0000
0000
0000
0000
0000
0000
0000
2002
0000
0000
3003
0000
0000
0000
0000
0000
0000
0000
0000
0000
0000
0000
0000
0000
0000
0000
0000
0000
0000
0000
0000
0000
0000
0000
2200
0000
0000
3300
0000
0000
0000
0000
0000
0000
0000
0000
0000
0000
0000
0000
0000
0000
0220
0000
0000
0330
0000
0000
0000
0000
0000
0000
0000
0000
0000
0000
0000
0022
0000
0000
0033
0000
0000
0000
0000
0000
0000
0000
0000
0000
0000
0000
0000
0000
0100
0000
0000
0000
,
0000
0000
0000
1000
0000
0000
0000
0010
0000
0000
0000
0100
0000
0000
0000
0001
0000
0000
0000
0100
0000
0000
0000
0010
0000
0000
0000
1000
0000
0000
0000
0001
0000
0000
0000
0100
0000
0000
0000
0010
0000
0000
0000
1000
0000
0000
0000
0100
,
0000
0000
0000
0010
0000
0000
0000
0100
0000
0000
0000
0000
1001
0000
0000
0000
0010
0000
0000
0000
0101
0000
0000
0000
1000
0000
0000
0000
0010
0000
0000
0000
0001
0000
0000
0000
1100
0000
0000
0000
0001
0000
0000
0000
0010
0000
0000
0000
,
1000
0101
0010
1000
0001
0110
1000
0001
0100
1010
0100
0010
,
0001
1010
0001
0100
0010
1001
0100
0010
0001
1100
0001
1010
,
0000
0100
0000
0000
0000
0000
0000
1010
0000
0000
0000
0000
0000
0000
0001
0000
0000
0000
0000
0000
0010
0000
0000
0000
0000
0000
0000
1000
0000
0000
0000
0000
0000
0110
0000
0000
0000
0000
0000
1000
0000
0000
0000
0000
0000
0000
0001
0000
0000
0000
0000
0000
0010
0000
0000
0000
0000
0000
0000
0101
0000
0000
0000
0000
,
0000
0000
1000
0000
0000
0000
0000
0000
0100
0000
0000
0000
0000
0000
0001
0000
0000
0000
0000
0000
0110
0000
0000
0000
0000
0000
0000
1000
0000
0000
0000
0000
0000
0010
0000
0000
0000
0000
0000
1000
0000
0000
0000
0000
0101
0000
0000
0000
0000
0000
0000
0010
0000
0000
0000
0000
0000
0000
0100
0000
0000
0000
0000
0000
,
0000
0001
0000
0000
0000
0000
0000
1010
0000
0000
0000
0000
0000
0100
0000
0000
0000
0000
0000
0000
0011
0000
0000
1000
0000
0000
0010
0000
0000
0100
0000
0000
0001
0000
0000
1000
0000
0000
0100
0000
0000
0001
0000
0000
0010
0000
0000
1000
0000
0000
0100
0000
0000
0010
0000
0000
0000
1001
0000
0000
0000
0000
0000
0000
,
0010
0000
0000
0000
0000
0000
0000
0100
0000
0000
0000
0000
0000
0001
0000
0000
0000
0000
0000
0000
1100
0000
0000
0000
0000
0000
0010
0000
0000
0000
0000
0000
0000
0001
0000
0000
0000
0000
0000
0100
0000
0000
0000
0000
0000
1010
0000
0000
0000
0000
0000
0000
0100
0000
0000
0000
0000
0000
0001
0000
0000
0000
0000
0000
,
1000
0000
0000
0000
0000
0000
0000
0110
0000
0000
0000
0000
0000
0000
0001
0000
0000
0000
0000
0000
0000
0100
0000
0000
0000
0000
0000
1000
0000
0000
0000
0000
0000
0000
0110
0000
0000
0000
0000
0000
0001
0000
0000
0000
0000
0000
1000
0000
0000
0000
0000
0000
0000
0010
0000
0000
0000
0000
0000
1100
0000
0000
0000
0000
,
0000
0000
0001
0000
0000
0000
0000
0000
0100
0000
0000
0000
0000
0000
0010
0000
0000
0000
0000
0000
1100
0000
0000
0000
0000
0000
0000
0010
0000
0000
0000
0000
0000
0000
0100
0000
0000
0000
0000
0000
0001
0000
0000
0000
0000
0000
0110
0000
0000
0000
0000
0000
0000
0001
0000
0000
0000
0000
0000
0100
0000
0000
0000
0000
,
0000
0000
1000
0000
0000
0000
0000
0000
0101
0000
0000
0000
0000
0000
0000
0010
0000
0000
0000
0000
0000
1000
0000
0000
0000
0000
0000
0000
0010
0000
0000
0000
0000
0000
0101
0000
0000
0000
0000
0000
0000
1000
0000
0000
0000
0000
0000
0010
0000
0000
0000
0000
0000
0001
0000
0000
0000
0000
0000
0000
1010
0000
0000
0000
,
0000
0000
0000
0100
0000
0000
0000
0000
0000
0001
0000
0000
0000
0000
0000
0100
0000
0000
0000
0000
0000
1001
0000
0000
0000
0000
0000
0010
0000
0000
0000
0000
0000
1000
0000
0000
0000
0000
0000
0000
0100
0000
0000
0000
0000
0000
0000
1010
0000
0000
0000
0000
0000
0100
0000
0000
0000
0000
0000
0001
0000
0000
0000
0000
,
0000
0000
0100
0000
0000
0000
0000
0000
0000
1010
0000
0000
0000
0000
0000
0100
0000
0000
0000
0000
0000
0001
0000
0000
0000
0000
0000
1000
0000
0000
0000
0000
0000
0000
0110
0000
0000
0000
0000
0000
1000
0000
0000
0100
0000
0000
0010
0000
0000
0001
0000
0000
1000
0000
0000
0010
0000
0000
1000
0000
0000
0001
0000
0000
,
0100
0000
0000
0001
0000
0000
0010
0000
0000
1000
0000
0000
0100
0000
0000
0010
0000
0000
1000
0000
0000
0001
0000
0000
0100
0000
0000
1000
0000
0000
0010
0000
0000
0101
0000
0000
0000
0000
0000
0000
0000
0000
0000
0000
0000
0000
0000
0000
0110
0000
0000
0000
0000
0000
0000
0000
0000
0000
0000
0000
0000
0000
0000
0000
,
1001
0000
0000
0000
0000
0000
0000
0000
0000
0000
0000
0000
0000
0000
0000
0000
0000
0000
0011
0000
0000
0000
0000
0000
0000
0000
0000
1010
0000
0000
0000
0000
0000
0000
0000
0000
0000
0000
0000
0000
0000
0000
0000
0101
0000
0000
0000
0000
0000
0000
0000
0000
0000
0000
0000
0000
0000
0000
0000
0000
0000
0000
0000
0000
,
0000
0000
0000
0000
0000
0000
0000
0000
0011
0000
0000
0000
0000
1100
0000
0000
0000
0000
0101
0000
0000
0000
0000
0000
0000
0000
0000
0000
0000
0000
0110
0000
,
0000
0000
0000
0000
1001
0000
0000
0000
0000
0000
0000
0000
0000
0000
0000
0000
0000
0000
0000
0000
0000
0000
0000
0000
0000
0101
0000
0000
0000
0000
0000
0000
0000
0000
1010
0000
0000
0000
0000
0000
0000
0000
0000
0000
0000
0000
0000
0000
0000
0000
0000
0000
0000
0000
0000
0000
0000
0000
0000
0000
0000
0000
0000
0000
,
0000
0000
0000
0000
0110
0000
0000
1010
0000
1010
0000
0101
0000
0101
0000
1010
,
0000
0000
1010
0000
0000
0000
0000
0000
0000
0000
0110
0000
0000
0000
0110
0000
0000
0000
0101
0000
0000
0000
0101
0000
0000
0000
0000
1010
0000
0000
0000
0000
,
0000
1010
0000
0000
0000
0000
0000
0000
0000
0000
1001
0000
0000
0000
0000
0000
0000
0000
0011
0000
0000
0000
0110
0000
0000
0000
1100
0000
0000
0000
0110
0000
,
0000
0000
0000
0000
0011
0000
0000
0000
0000
0000
0000
0000
0000
0000
0000
0000
0000
0000
0000
1001
0000
0000
0000
0000
0000
0000
0000
0110
0000
0000
0000
0000
0000
0000
0000
1001
0000
0000
0000
0000
0000
0000
0000
0011
0000
0000
0000
0000
0000
0000
0000
0000
0011
0000
0000
0000
0000
0000
0000
0110
0000
0000
0000
0000
,
0000
0000
0000
0000
0000
0000
0000
0000
0000
1001
0000
0010
,
0000
1100
0000
0001
0000
0100
0000
0010
0000
1001
0000
0100
,
0000
0010
0000
1000
0000
0101
0000
0010
0000
0100
0000
0001
,
0000
1010
0000
0100
0000
0010
0000
0001
0000
1010
0000
0001
,
0000
0100
0000
0001
0000
1100
0000
0010
0000
1000
0000
0001
,
0000
0110
0000
1000
0000
0001
0000
0100
0000
0011
0000
1000
,
0000
0010
0000
0100
0000
1010
0000
0100
0000
0001
0000
0010
,
0000
1001
0000
0100
0000
0010
0000
0001
0000
1100
0000
0010
,
0000
1000
0000
0001
0000
1010
0000
0100
0000
0010
0000
0001
,
0000
1010
0000
0100
0000
0010
0000
1000
0000
0101
0000
0010
,
0000
1100
0010
0001
0010
0100
0010
0001
0010
0100
1000
0100
,
0010
0000
0100
0000
1000
0000
0100
0000
0010
0000
0001
0000
0010
0000
0000
0101
0000
0000
0000
0010
0000
0000
0000
1100
,
0000
0000
0000
0001
0000
0000
0000
0110
0000
0000
0000
0001
0000
0000
0000
1010
0000
0000
0000
0100
0000
0000
0000
0011
,
0000
0000
0000
1000
0000
0000
0000
0110
0000
0000
0000
0001
0000
0000
0000
1100
0000
0000
0000
0010
0000
0000
0000
0101
,
0000
0000
0000
0010
0000
0000
0000
1100
0000
0000
0000
0010
0000
0000
0000
0101
0000
0000
0000
1000
0000
0000
0000
0110
,
0000
0000
0000
1000
0000
0000
0000
0101
0000
0000
0000
0010
0000
0000
0000
1100
0000
0000
0000
0010
0000
0000
0000
0101
,
0000
0000
0000
0010
0000
0000
0000
1100
0000
0000
0000
0010
0000
0000
0000
0101
0000
0000
0000
0010
0000
0000
0000
1100
,
0000
0000
0000
0010
0000
0000
0000
1001
0000
0000
0000
0100
0000
0000
0000
1010
0000
0000
0000
0001
0000
0000
0000
1100
,
0000
0000
0000
0010
0000
0000
0000
0101
0000
0000
0000
0010
0000
0000
0000
1100
0000
0000
0000
0010
0000
0000
0000
1001
,
0000
0000
0000
0010
0000
0000
0000
0101
0000
0000
0000
1000
0000
0000
0000
0011
0000
0000
0000
0100
0000
0000
0000
1010
,
0000
0000
0000
0100
0000
0000
0000
1010
0000
0000
0000
0001
0000
0000
0000
1010
0000
0000
0000
0100
0000
0000
0000
1010
,
0000
0000
0000
0100
0000
0000
0000
0011
0000
0000
0000
0100
0000
0000
0000
1010
0000
0000
0000
0001
0000
0000
0000
1100
,
0000
0000
0000
0010
0000
0000
0000
0000
1001
0000
0000
0000
0010
0000
0000
0000
0100
0000
0000
0000
0010
0000
0000
0000
0001
0000
0000
0000
0100
0000
0000
0000
0010
0000
0000
0000
1000
0000
0000
0000
0100
0000
0000
0000
0010
0000
0000
0000
,
0001
0010
0100
0001
0010
0100
0001
1000
0100
0010
1000
0001
,
0100
0010
1000
0001
0100
0010
0001
0010
0100
0010
0001
0010
,
0100
1000
0100
1000
0100
0010
0100
0001
0010
0100
1000
0100
,
0010
0100
1000
0001
0010
0100
0010
0001
1000
0100
0010
1000
,
0100
0001
0010
0100
0001
0010
0100
0010
1000
0100
0001
0010
,
0100
1000
0010
0001
0010
0100
0001
0010
0100
1000
0100
0010
,
1000
0100
0010
1000
0001
0010
1000
0100
0001
0010
1000
0100
,
0010
0001
0100
1000
0010
0001
0100
1000
0010
0001
0010
0100
,
1000
0100
0010
0100
1000
0010
0001
0100
1000
0010
0001
0100
,
1000
0010
0001
0100
1000
0010
0001
0100
1000
0010
0001
0100
,
1000
0000
0100
0000
0010
0000
0001
0000
0100
0000
0010
0000
1001
0000
0000
0000
0010
0000
0000
0000
0000
1100
0000
0000
,
0000
0010
0000
0000
0101
0000
0000
0010
0000
0000
1100
0000
0000
0001
0000
0000
,
0110
0000
0000
0000
0000
0000
0000
0000
0000
0001
0000
0000
0000
0000
0000
0000
0000
0000
1010
0000
0000
0000
0000
0000
0000
0000
0000
0100
0000
0000
0000
0000
0000
0000
0000
0000
1010
0000
0000
0000
0000
0000
0000
0000
0001
0000
0000
0000
,
0000
1010
0000
0100
0000
0011
0000
1000
0000
0110
0000
1000
,
0000
0011
0000
0100
0000
1010
0000
0100
0000
0011
0000
1000
,
0000
0000
0000
0000
0000
0000
0000
0000
0000
0000
0000
0000
0000
0000
0000
0000
0101
0000
0000
0000
0000
0000
0000
0000
0000
0000
0000
0000
0000
0000
0000
0000
0000
0000
0000
0000
0000
0000
0000
0000
0000
0000
0000
0000
0000
0000
0000
0000
0000
0000
0000
0000
0010
0000
0000
0000
0000
0000
0000
0000
0000
0000
0000
0000
0000
0000
0000
0000
0000
0000
0000
0000
0000
0000
0000
0000
0000
0000
0000
0000
0000
0000
0000
0000
1100
0000
0000
0000
0000
0000
0000
0000
0000
0000
0000
0000
0000
0000
0000
0000
0000
0000
0000
0000
0000
0000
0000
0000
0000
0000
0000
0000
0000
0000
0000
0000
0000
0010
0000
0000
0000
0000
0000
0000
0000
0000
0000
0000
0000
0000
0000
0000
0000
0000
0000
0000
0000
0000
0000
0000
0000
0000
0000
0000
0000
0000
0000
0000
0000
0000
0101
0000
0000
0000
0000
0000
0000
0000
0000
0000
0000
0000
0000
0000
0000
0000
0000
0000
0000
0000
0000
0000
0000
0000
0000
0000
0000
0000
0000
0000
0000
0000
0000
0000
0010
0000
0000
0000
0000
0000
0000
0000
,
0000
0000
1100
0000
0000
0010
0000
0000
1001
0000
0000
0100
0000
0000
1010
0000
,
0000
0000
0000
0000
0000
0000
0000
0000
0000
0000
0000
0000
0100
0000
0000
0000
0000
0000
0000
0000
0000
0000
0000
0000
0000
0000
0000
0000
0000
0000
0000
0000
0000
0000
0000
0000
0000
0000
0000
0000
0000
0000
0000
0000
0000
0000
0000
0000
0011
0000
0000
0000
0000
0000
0000
0000
0000
0000
0000
0000
0000
0000
0000
0000
0000
0000
0000
0000
0000
0000
0000
0000
0000
0000
0000
0000
0000
0000
0000
0000
0100
0000
0000
0000
0000
0000
0000
0000
0000
0000
0000
0000
0000
0000
0000
0000
0000
0000
0000
0000
0000
0000
0000
0000
0000
0000
0000
0000
0000
0000
0000
0000
0000
0000
1010
0000
0000
0000
0000
0000
0000
0000
0000
0000
0000
0000
0000
0000
0000
0000
0000
0000
0000
0000
0000
0000
0000
0000
0000
0000
0000
0000
0000
0000
0100
0000
0000
0000
0000
0000
0000
0000
0000
0000
0000
0000
0000
0000
0000
0000
0000
0000
0000
0000
0000
0000
0000
0000
0000
0000
0000
0000
0000
0000
0000
0000
1001
0000
0000
0000
0000
0000
0000
0000
0000
0000
0000
0000
0000
0000
0000
0000
,
0000
0000
0000
0000
0000
0000
0000
0000
0000
0000
0000
0000
0000
0000
0000
0000
0000
0000
0010
0000
0000
0000
0000
0000
0000
0000
0000
0000
0000
0000
0000
0000
0000
0000
0000
0000
0000
0000
0000
0000
0000
0000
0000
0000
0000
0000
0000
0000
0000
0000
0000
0000
0000
0000
1100
0000
0000
0000
0000
0000
0000
0000
0000
0000
0000
0000
0000
0000
0000
0000
0000
0000
0000
0000
0000
0000
0000
0000
0000
0000
0000
0000
0000
0000
0000
0000
0000
0000
0010
0000
0000
0000
0000
0000
0000
0000
0000
0000
0000
0000
0000
0000
0000
0000
0000
0000
0000
0000
0000
0000
0000
0000
0000
0000
0000
0000
0000
0000
0000
0000
0101
0000
0000
0000
0000
0000
0000
0000
0000
0000
0000
0000
0000
0000
0000
0000
0000
0000
0000
0000
0000
0000
0000
0000
0000
0000
0000
0000
0000
0000
0000
0000
0000
0000
0000
0000
0010
0000
0000
0000
0000
0000
0000
0000
0000
0000
0000
0000
0000
0000
0000
0000
0000
0000
0000
0000
0000
0000
0000
0000
0000
0000
0000
0000
0000
0000
0000
0000
0000
0000
0000
0000
,
1100
0000
0000
0000
0000
0000
0000
0000
0000
0000
0000
0000
0000
0000
0000
0000
0000
0000
0000
0000
0000
0000
0000
0000
0000
0000
0000
0000
0000
0000
0000
0000
0010
0000
0000
0000
0000
0000
0000
0000
0000
0000
0000
0000
0000
0000
0000
0000
0000
0000
0000
0000
0000
0000
0000
0000
0000
0000
0000
0000
0000
0000
0000
0000
0000
0000
0101
0000
0000
0000
0000
0000
0000
0000
0000
0000
0000
0000
0000
0000
0000
0000
0000
0000
0000
0000
0000
0000
0000
0000
0000
0000
0000
0000
0000
0000
0000
0000
0000
0000
0000
0000
0010
0000
0000
0000
0000
0000
0000
0000
0000
0000
0000
0000
0000
0000
0000
0000
0000
0000
0000
0000
0000
0000
0000
0000
0000
0000
0000
0000
0000
0000
0000
0000
0000
0000
1100
0000
0000
0000
0000
0000
0000
0000
0000
0000
0000
0000
0000
0000
0000
0000
0000
0000
0000
0000
0000
0000
0000
0000
0000
0000
0000
0000
0000
0000
0000
0000
0010
0000
0000
0000
0000
0000
0000
0000
0000
0000
0000
0000
0000
0000
0000
0000
0000
0000
0000
0000
0000
0000
0000
0000
,
0000
0000
0000
0000
0000
0000
0000
0000
0000
0000
0000
0000
0101
0000
0000
0000
0000
0000
0000
0000
0000
0000
0000
0000
0000
0000
0000
0000
0000
0000
0000
0000
0000
0000
0000
0000
0000
0000
0000
0000
0000
0000
0000
0000
0010
0000
0000
0000
0000
0000
0000
0000
0000
0000
0000
0000
0000
0000
0000
0000
0000
0000
0000
0000
0000
0000
0000
0000
0000
0000
0000
0000
0000
0000
0000
0000
0000
0000
0000
0000
1100
0000
0000
0000
0000
0000
0000
0000
0000
0000
0000
0000
0000
0000
0000
0000
0000
0000
0000
0000
0000
0000
0000
0000
0000
0000
0000
0000
0000
0000
0000
0000
0000
0000
0010
0000
0000
0000
0000
0000
0000
0000
0000
0000
0000
0000
0000
0000
0000
0000
0000
0000
0000
0000
0000
0000
0000
0000
0000
0000
0000
0000
0000
0000
0000
0000
0000
0000
0000
0000
0000
0000
1001
0000
0000
0000
0000
0000
0000
0000
0000
0000
0000
0000
0000
0000
0000
0000
0000
0000
0000
0000
0000
0000
0000
0000
0000
0000
0000
0000
0000
0000
0000
0000
0000
0000
0000
0000
0010
0000
0000
0000
,
0000
0000
0000
0000
0000
0000
0000
0000
0000
0101
0000
0000
0000
0000
0000
0000
0000
0000
0000
0010
0000
0000
0000
0000
0000
0000
0000
0000
0000
1100
0000
0000
0001
0000
0000
0000
0100
0000
0000
0000
0010
0000
0000
0000
0100
0000
0000
0000
,
1001
0010
0001
0100
0010
0001
0010
1100
0010
0100
0001
0100
,
1000
0010
0100
0001
1010
0100
0001
0010
1000
0100
0010
0001
,
0010
1100
0010
0001
0010
0100
0010
0001
0100
1010
0100
0001
,
0010
1000
0100
0001
0010
1100
0010
1000
0100
0001
0010
0100
,
0010
0001
1010
0100
0010
0001
1000
0100
0010
1000
0001
1100
,
0010
0001
0100
0010
0100
0001
1000
0011
0100
0010
0001
0010
,
0100
0010
0001
0100
1010
0100
0001
0010
1000
0100
1000
0100
,
0011
0100
0010
0001
0010
1000
0010
0100
1010
0100
0001
0010
,
0100
0001
0100
0010
0001
1100
0010
0100
0010
0001
0100
1000
,
0010
1100
0010
0100
0001
0010
0100
0001
0100
1010
0100
0010
,
1000
0001
0100
0010
1000
0110
1000
0001
0100
2001
0010
0100
,
0010
0001
3010
1001
0100
0010
0001
0010
0100
0001
0010
1100
,
0010
0001
0010
0100
1000
0100
0010
1000
0110
0001
0010
0100
,
1000
0100
0001
0100
1010
0001
0010
1000
0100
0001
0010
1000
,
0110
1000
0100
0001
0010
0001
1000
0010
1100
0001
0010
0001
,
0010
0100
1000
0100
0010
1001
0100
0010
1000
0001
0100
0010
,
1000
0110
0001
1000
0010
0100
0001
1000
0010
0100
1010
0001
,
0100
0010
1000
0001
0100
0010
1100
0010
0001
0100
0010
1000
,
0100
0001
0010
1100
0010
0100
1000
0001
0010
1000
0100
0010
,
1001
0100
1000
0010
0100
0001
1000
0010
1100
0010
0001
0100
,
0010
0100
0001
0010
1100
0010
0100
1000
0010
0100
0001
0010
,
1001
0100
0010
1000
0001
0010
0100
0001
1010
0100
0001
0010
,
0100
0000
0000
0000
0000
0000
0000
0000
0000
0000
0000
0000
0000
0000
0000
0000
1002
0000
0000
0000
0000
0000
0000
0000
0000
0000
0000
0000
0000
0000
0000
0000
0003
0000
0000
0000
0000
0000
0000
0000
0000
0000
0000
0000
0000
0000
0000
0000
0000
0000
0000
0000
0000
0000
0000
0000
0000
0000
0000
0000
0020
0000
0000
0000
0000
0000
0000
0000
0000
0000
0000
0000
0030
0000
0000
0000
0000
0000
0200
0000
0000
0000
0000
0000
0000
0000
0000
0000
0000
0000
0000
0000
0000
0000
0000
0000
0000
0000
0000
0000
0000
0000
0000
0000
0000
0000
0000
0000
0000
0000
0000
0000
0000
0000
0300
0000
0000
0000
0000
0000
0000
0000
0000
0000
0000
0000
0000
0000
0000
0000
0000
0000
0000
0000
0000
0000
0000
0000
0000
0000
0000
0000
0000
0000
0000
0000
0000
0000
0000
0000
0022
0000
0000
0033
0000
0000
0000
0000
0000
0000
0000
0000
0000
0000
0000
0000
0000
0000
0000
0000
0000
0000
0000
0000
0000
0000
0000
0000
0000
0000
0000
0000
0000
0000
0000
0000
0000
0000
0000
0000
0000
0000
,
0000
0000
0000
0000
0000
0000
0000
0000
0220
0330
0000
0000
0000
0000
0000
0000
0000
0000
0000
0000
0000
0000
0000
0000
0000
0000
0000
0000
2020
3030
0000
0000
0000
0000
0000
0000
0000
0000
0000
0000
0000
0000
0000
0000
0000
0000
0000
0000
0000
0000
2200
3300
0000
0000
0000
0000
0000
0000
0000
0000
0000
0000
0000
0000
,
0000
0000
0000
0000
0000
0000
0000
0000
0022
0033
0000
0000
0000
0000
0000
0000
0000
0000
0000
0000
0000
0000
0000
0000
0000
0000
0000
0000
2020
3030
0000
0000
0000
0000
0000
0000
0000
0000
0000
0000
0000
0000
0000
0000
0000
0000
0000
0000
0000
0000
0202
0303
0000
0000
0000
0000
0000
0000
0000
0000
0000
0000
0000
0000
,
0000
0000
0000
0000
0220
0330
0000
0000
0000
0000
2002
3003
0000
0000
0000
0000
0000
0000
0000
0000
0000
0000
0000
0000
0000
0000
0000
0000
0000
0000
0202
0303
0000
0000
0000
0000
0000
0000
0000
0000
0000
0000
0000
0000
0000
0000
0000
0000
0000
0000
0000
0000
0000
0000
0220
0330
0000
0000
0000
0000
0000
0000
0000
0000
,
0000
0000
0000
0000
0000
0000
0000
0000
0000
0000
2020
3030
0000
0000
0000
0000
0000
0000
0000
0000
0000
0000
0000
0000
0000
0000
0000
0000
0000
0000
0000
0000
0202
0303
0000
0000
0000
0000
0000
0000
0000
0000
0000
0000
0000
0000
0000
0000
0000
0000
0000
0000
0000
0000
2002
3003
0000
0000
0000
0000
0000
0000
0000
0000
,
0000
0000
0000
0000
0000
0000
0000
0000
0000
0000
0000
0000
0000
0000
0000
0000
0000
0000
0000
0000
0000
0000
0000
0000
0000
0000
0000
0000
0000
0000
0000
0000
0000
0000
0000
0000
0220
0000
0000
0000
0000
0000
0000
0000
0000
0000
0000
0000
0000
0000
0000
0000
0000
0000
0000
0000
0000
0000
0000
0000
0000
0000
0000
0000
0000
0000
0000
0000
0000
0000
0000
0000
0000
0000
0000
0000
0000
0000
0000
0000
0000
0000
0000
0000
0000
0000
0000
0000
0000
0000
0000
0000
0000
0000
0000
0000
0000
0000
0000
0000
0000
0000
0000
0000
0000
0000
0000
0000
0000
0000
0000
0000
0000
0000
0000
0000
0000
0000
0000
0000
0000
0000
0000
0000
0000
0000
0000
0000
0000
0000
0000
0000
0000
0000
0000
0000
0000
0000
0000
0000
0000
0330
0000
0000
0000
0000
0000
0000
0000
0000
0000
0000
1001
0000
0000
0000
0000
0000
0000
0000
0000
0000
0000
0000
0000
0000
0000
0000
0000
0000
0000
0000
0010
0000
0000
0000
0000
0000
0000
0000
0000
0000
0000
0000
0000
0000
0000
0000
0000
0000
0000
0000
,
1001
0000
0000
0000
0000
0010
0000
0000
0000
0000
1001
0000
0000
0000
0000
0010
0000
0000
0000
0000
1001
0000
0000
0000
0000
0010
0000
0000
0000
0000
1001
0000
0000
0000
0000
0010
0000
0000
0000
0000
1001
0000
0000
0000
0000
0010
0000
0000
,
0000
0000
1001
0000
0000
0000
0000
0010
0000
0000
0000
0000
1001
0000
0000
0000
0000
0010
0000
0000
0000
0000
1001
0000
0000
0000
0000
0010
0000
0000
0000
0000
1001
0000
0000
0000
0000
0100
0000
0000
0000
0000
0011
0000
0000
0000
0000
0100
,
0000
0000
0000
0000
0011
0000
0000
0000
0000
0100
0000
0000
0000
0000
0011
0000
0000
0000
0000
0100
0000
0000
0000
0000
0011
0000
0000
0000
0000
0100
0000
0000
0000
0000
0011
0000
0000
0000
0000
0100
0000
0000
0000
0000
0011
0000
0000
0000
,
0000
1000
0000
0000
0000
0000
0101
0000
0000
0000
0000
1000
0000
0000
0000
0000
0101
0000
0000
0000
0000
1000
0000
0000
0000
0000
0101
0000
0000
0000
0000
1000
0000
0000
0000
0000
0101
0000
0000
0000
0000
1000
0000
0000
0000
0000
0101
0000
,
0000
0000
0000
0010
0000
0000
0000
0000
1100
0000
0000
0000
0000
0010
0000
0000
0000
0000
1100
0000
0000
0000
0000
0010
0000
0000
0000
0000
1100
0000
0000
0000
0000
0010
0000
0000
0000
0000
0101
0000
0000
0000
0000
0010
0000
0000
0000
0000
,
0101
0000
0000
0000
0000
0010
0000
0000
0000
0000
0101
0000
0000
0000
0000
0010
0000
0000
0000
0000
0101
0000
0000
0000
0000
0010
0000
0000
0000
0000
0101
0000
0000
0000
0000
0010
0000
0000
0000
0000
0101
0000
0000
0000
0000
0010
0000
0000
,
0000
0000
0101
0000
0000
0000
0000
0010
0000
0000
0000
0000
0101
0000
0000
0000
0000
0010
0000
0000
0000
0000
0101
0000
0000
0000
0000
1000
0000
0000
0000
0000
0011
0000
0000
0000
0000
1000
0000
0000
0000
0000
0011
0000
0000
0000
0000
1000
,
0000
0000
0000
0000
0011
0000
0000
0000
0000
1000
0000
0000
0000
0000
0110
0000
0000
0000
0000
1000
0000
0000
0000
0000
0110
0000
0000
0000
0000
1000
0000
0000
0000
0000
0110
0000
0000
0000
0000
1000
0000
0000
0000
0000
0110
0000
0000
0000
,
0000
1000
0000
0000
0000
0000
0110
0000
0000
0000
0000
1000
0000
0000
0000
0000
0110
0000
0000
0000
0000
1000
0000
0000
0000
0000
0110
0000
0000
0000
0000
1000
0000
0000
0000
0000
0110
0000
0000
0000
0000
1000
0000
0000
0000
0000
0110
0000
,
0000
0000
0000
1000
0000
0000
0000
0000
0110
0000
0000
0000
0000
1000
0000
0000
0000
0000
0110
0000
0000
0000
0000
1000
0000
0000
0000
0000
0110
0000
0000
0000
0000
1000
0000
0000
0000
0000
0101
0000
0000
0000
0000
1000
0000
0000
0000
0000
,
0101
0000
0000
0000
0000
1000
0000
0000
0000
0101
0000
0000
0000
0000
1000
0000
0000
0000
0000
0101
0000
0000
0000
0000
1000
0000
0000
0000
0000
0011
0000
0000
0000
0000
0100
0000
0000
0000
0000
0011
0000
0000
0000
0000
0100
0000
0000
0000
,
0000
0011
0000
0000
0000
0000
0100
0000
0000
0000
0000
0011
0000
0000
0000
0000
1000
0000
0000
0000
0000
0110
0000
0000
0000
0000
1000
0000
0000
0000
0000
0110
0000
0000
0000
0000
1000
0000
0000
0000
0000
0110
0000
0000
0000
0000
1000
0000
,
0000
0000
0000
0110
0000
0000
0000
0000
1000
0000
0000
0000
0000
0110
0000
0000
0000
0000
1000
0000
0000
0000
0000
0110
0000
0000
0000
0000
1000
0000
0000
0000
0000
0110
0000
0000
0000
0000
1000
0000
0000
0000
0000
0110
0000
0000
0000
0000
,
1000
0000
0000
0000
0000
0110
0000
0000
0000
0000
0001
0000
0000
0000
0000
1100
0000
0000
0000
0000
0001
0000
0000
0000
0000
1100
0000
0000
0000
0000
0001
0000
0000
0000
0000
1100
0000
0000
0000
0000
0010
0000
0000
0000
0000
1001
0000
0000
,
0000
0000
0010
0000
0000
0000
0000
1001
0000
0000
0000
0000
0010
0000
0000
0000
0000
1001
0000
0000
0000
0000
0010
0000
0000
0000
0000
1001
0000
0000
0000
0000
0010
0000
0000
0000
0000
1001
0000
0000
0000
0000
0010
0000
0000
0000
0000
1001
,
0000
0000
0000
0000
0010
0000
0000
0000
0000
1001
0000
0000
0000
0000
0010
0000
0000
0000
0000
1001
0000
0000
0000
0000
0010
0000
0000
0000
0000
1001
0000
0000
0000
0000
0010
0000
0000
0000
0000
1001
0000
0000
0000
0000
0010
0000
0000
0000
,
0000
1001
0000
0000
0000
0000
0010
0000
0000
0000
0000
1001
0000
0000
0000
0000
0010
0000
0000
0000
0000
1001
0000
0000
0000
0000
0100
0000
0000
0000
0000
0011
0000
0000
0000
0000
0100
0000
0000
0000
0000
0011
0000
0000
0000
0000
0100
0000
,
0000
0000
0000
0011
0000
0000
0000
0000
0100
0000
0000
0000
0000
1010
0000
0000
0000
0000
0001
0000
0000
0000
0000
1010
0000
0000
0000
0000
0001
0000
0000
0000
0000
1010
0000
0000
0000
0000
0001
0000
0000
0000
0000
1010
0000
0000
0000
0000
,
0001
0000
0000
0000
0000
1100
0000
0000
0000
0000
0010
0000
0000
0000
0000
1100
0000
0000
0000
0000
0010
0000
0000
0000
0000
1100
0000
0000
0000
0000
0010
0000
0000
0000
0000
1100
0000
0000
0000
0000
0010
0000
0000
0000
0000
1100
0000
0000
,
0000
0000
0010
0000
0000
0000
0000
1100
0000
0000
0000
0000
0010
0000
0000
0000
0000
1100
0000
0000
0000
0000
0010
0000
0000
0000
0000
1100
0000
0000
0000
0000
0010
0000
0000
0000
0000
1100
0000
0000
0000
0000
0010
0000
0000
0000
0000
1100
,
0000
0000
0000
0000
0001
0000
0000
0000
0000
0110
0000
0000
0000
0000
0001
0000
0000
0000
0000
0110
0000
0000
0000
0000
0001
0000
0000
0000
0000
0110
0000
0000
0000
0000
1000
0000
0000
0000
0000
0011
0000
0000
0000
0000
1000
0000
0000
0000
,
0000
0011
0000
0000
0000
0000
1000
0000
0000
0000
0000
0011
0000
0000
0000
0000
1000
0000
0000
0000
0000
0011
0000
0000
0000
0000
1000
0000
0000
0000
0000
0011
0000
0000
0000
0000
1000
0000
0000
0000
0000
0011
0000
0000
0000
0000
1000
0000
,
0000
0000
0000
0011
0000
0000
0000
0000
1000
0000
0000
0000
0000
0011
0000
0000
0000
0000
1000
0000
0000
0000
0000
0011
0000
0000
0000
0000
1000
0000
0000
0000
0000
0011
0000
0000
0000
0000
1000
0000
0000
0000
0000
0011
0000
0000
0000
0000
,
1000
0000
0000
0000
0000
0011
0000
0000
0000
0000
0100
0000
0000
0000
0000
1010
0000
0000
0000
0000
0100
0000
0000
0000
0000
1010
0000
0000
0000
0000
0100
0000
0000
0000
0000
1010
0000
0000
0000
0000
0100
0000
0000
0000
0000
1010
0000
0000
,
0000
0000
0100
0000
0000
0000
0000
0011
0000
0000
0000
0000
1000
0000
0000
0000
0000
0011
0000
0000
0000
0000
1000
0000
0000
0000
0000
0011
0000
0000
0000
0000
1000
0000
0000
0000
0000
0011
0000
0000
0000
0000
1000
0000
0000
0000
0000
0110
,
0000
0000
0000
0000
1000
0000
0000
0000
0000
0110
0000
0000
0000
0000
1000
0000
0000
0000
0000
0110
0000
0000
0000
0000
1000
0000
0000
0000
0000
0110
0000
0000
0000
0000
1000
0000
0000
0000
0000
0110
0000
0000
0000
0000
1000
0000
0000
0000
,
0000
0110
0000
0000
0000
0000
1000
0000
0000
0000
0000
0110
0000
0000
0000
0000
1000
0000
0000
0000
0000
0110
0000
0000
0000
0000
0001
0000
0000
0000
0000
1100
0000
0000
0000
0000
0001
0000
0000
0000
0000
1100
0000
0000
0000
0000
0001
0000
,
0000
0000
0000
1100
0000
0000
0000
0000
0001
0000
0000
0000
0000
0110
0000
0000
0000
0000
1000
0000
0000
0000
0000
0110
0000
0000
0000
0000
1000
0000
0000
0000
0000
0110
0000
0000
0000
0000
1000
0000
0000
0000
0000
0110
0000
0000
0000
0000
,
1000
0000
0000
0000
0000
0110
0000
0000
0000
0000
1000
0000
0000
0000
0000
0110
0000
0000
0000
0000
1000
0000
0000
0000
0000
0110
0000
0000
0000
0000
1000
0000
0000
0000
0000
0110
0000
0000
0000
0000
1000
0000
0000
0000
0000
0110
0000
0000
,
0000
0000
1000
0000
0000
0000
0000
0110
0000
0000
0000
0000
1000
0000
0000
0000
0000
0110
0000
0000
0000
0000
1000
0000
0000
0000
0000
0110
0000
0000
0000
0000
1000
0000
0000
0000
0000
0110
0000
0000
0000
0000
0001
0000
0000
0000
0000
1100
,
0000
0000
0000
0000
0001
0000
0000
0000
0000
1100
0000
0000
0000
0000
0001
0000
0000
0000
0000
1100
0000
0000
0000
0000
0001
0000
0000
0000
0000
1100
0000
0000
0000
0000
0010
0000
0000
0000
0000
0101
0000
0000
0000
0000
0010
0000
0000
0000
,
0000
0101
0000
0000
0000
0000
0010
0000
0000
0000
0000
0101
0000
0000
0000
0000
0010
0000
0000
0000
0000
0101
0000
0000
0000
0000
1000
0000
0000
0000
0000
0110
0000
0000
0000
0000
1000
0000
0000
0000
0000
0110
0000
0000
0000
0000
1000
0000
,
0000
0000
0000
0110
0000
0000
0000
0000
1000
0000
0000
0000
0000
0110
0000
0000
0000
0000
1000
0000
0000
0000
0000
0110
0000
0000
0000
0000
1000
0000
0000
0000
0000
0110
0000
0000
0000
0000
1000
0000
0000
0000
0000
0110
0000
0000
0000
0000
,
1000
0000
0000
0000
0000
0110
0000
0000
0000
0000
1000
0000
0000
0000
0000
0011
0000
0000
0000
0000
0100
0000
0000
0000
0000
0011
0000
0000
0000
0000
0100
0000
0000
0000
0000
0011
0000
0000
0000
0000
0100
0000
0000
0000
0000
0011
0000
0000
,
0000
0000
1000
0000
0000
0000
0000
0101
0000
0000
0000
0000
1000
0000
0000
0000
0000
0101
0000
0000
0000
0000
1000
0000
0000
0000
0000
0101
0000
0000
0000
0000
1000
0000
0000
0000
0000
0101
0000
0000
0000
0000
1000
0000
0000
0000
0000
0101
,
0000
0000
0000
0000
1000
0000
0000
0000
0000
0101
0000
0000
0000
0000
1000
0000
0000
0000
0000
0101
0000
0000
0000
0000
1000
0000
0000
0000
0000
0101
0000
0000
0000
0000
1000
0000
0000
0000
0000
0101
0000
0000
0000
0000
1000
0000
0000
0000
,
0000
0101
0000
0000
0000
0000
1000
0000
0000
0000
0000
0101
0000
0000
0000
0000
1000
0000
0000
0000
0000
0101
0000
0000
0000
0000
0010
0000
0000
0000
0000
1100
0000
0000
0000
0000
0010
0000
0000
0000
0000
1100
0000
0000
0000
0000
0010
0000
,
0000
0000
0000
1100
0000
0000
0000
0000
0010
0000
0000
0000
0000
1100
0000
0000
0000
0000
0001
0000
0000
0000
0000
0110
0000
0000
0000
0000
0001
0000
0000
0000
0000
0110
0000
0000
0000
0000
0001
0000
0000
0000
0000
0110
0000
0000
0000
0000
,
0001
0000
0000
0000
0000
1000
0000
0000
0000
0000
0011
0000
0000
0000
0000
1000
0000
0000
0000
0000
0011
0000
0000
0000
0000
1000
0000
0000
0000
0000
0011
0000
0000
0000
0000
1000
0000
0000
0000
0000
0011
0000
0000
0000
0000
1000
0000
0000
,
0000
0000
0011
0000
0000
0000
0000
1000
0000
0000
0000
0000
0011
0000
0000
0000
0000
1000
0000
0000
0000
0000
0011
0000
0000
0000
0000
1000
0000
0000
0000
0000
0011
0000
0000
0000
0000
1000
0000
0000
0000
0000
0011
0000
0000
0000
0000
1000
,
0000
0000
0000
0000
0020
0000
0000
0000
0000
0000
0000
0000
0000
0000
0030
0000
0000
0000
0000
0000
0000
0002
0000
0000
0000
0000
0000
0000
0000
0000
0000
0000
0000
0000
0000
0000
0000
0000
0000
0000
0000
0000
0000
0000
0000
0000
0000
0000
,
0000
0000
0000
0000
0000
0000
0000
0000
0000
0000
0000
0000
0000
0000
0000
0000
0000
0000
0000
0000
0000
0000
0000
0000
0000
0000
0000
0000
0000
0000
0000
0000
0000
0000
0000
0000
0000
0003
0000
0000
0000
0000
0000
0000
0000
0000
0000
0000
,
0020
0000
0000
0000
0000
0000
0000
0000
0000
0000
0000
0000
0030
0000
0000
0000
0000
0000
0000
0000
0200
0000
0000
0000
0000
0000
0000
0000
0000
0000
0000
0000
0300
0000
0000
0000
0000
0000
0000
0002
0000
0000
0000
0000
0000
0000
0000
0000
,
0000
0000
0000
0000
0000
0000
0000
0000
0000
0000
0000
0000
0000
0000
0000
0000
0000
0000
0000
0000
0000
0000
0000
0000
0000
0000
0000
0000
0000
0000
0000
0000
0000
0000
0000
0000
0000
0000
0000
0000
0000
0000
0000
0003
0000
0000
0000
0000
,
0000
0000
0200
0000
0000
0000
0000
0000
0000
0300
0000
0000
2000
0000
0000
0000
0000
0000
0000
0000
0000
0000
0000
0000
,
0000
0000
0000
0000
0000
0000
0000
0000
0000
0000
0000
0000
0000
3000
0000
0000
,
0002
0000
0000
0000
0000
0000
0000
0000
0000
0000
0000
0000
0000
0003
0000
0000
0000
0000
0000
0020
0000
0000
0000
0000
0000
0000
0000
0000
0000
0000
0000
0000
0000
0000
0000
0000
0000
0030
0000
0000
0000
0000
0000
0200
0000
0000
0000
0000
,
0000
0000
0000
0000
0000
0000
0000
0000
0000
0000
0000
0000
0000
0000
0000
0000
0000
0000
0000
0000
0000
0000
0000
0000
0000
0000
0000
0000
0000
0000
0000
0000
0000
0000
0000
0000
0000
0000
0000
0000
0000
0000
0000
0300
0000
0000
0000
0000
,
0000
2000
0000
0000
0000
0000
0000
0000
0000
0000
0000
0000
0000
3110
0000
0000
0000
0000
0000
0002
0000
0000
0000
0000
0000
0000
0000
0000
0000
0000
0000
0000
0000
0000
0000
0000
0000
1100
0000
0000
0000
0000
0000
0000
0000
0000
0000
0000
,
0000
0000
0000
0000
0000
0000
0000
0000
0000
0000
0000
0000
0110
0000
0000
0000
0000
0000
0000
0000
0000
0000
0000
0000
0000
0000
0000
0000
0000
0000
0000
0000
0000
0000
0000
1013
0000
0000
0000
0000
0000
0000
0000
0000
0000
0000
0000
0200
,
0000
0000
0000
0000
0000
0000
0000
0000
0000
0000
0000
1310
0000
0000
0000
0000
0000
0000
0000
0020
0000
0000
0000
0000
0000
0000
0000
0000
0000
0000
0000
0000
0000
0000
0000
1130
0000
0000
0000
0000
0200
0000
0000
0000
0000
0000
0000
0000
,
0000
0000
0000
0000
0000
0000
0000
0000
0000
0000
0000
0000
0000
1010
0000
0000
0000
0000
0000
0000
0000
0000
0000
0000
0000
0000
0000
0000
0000
0000
0000
0000
0000
0000
0000
0000
0011
0000
0000
0000
0000
0000
0000
0300
0000
0000
0000
0000
,
0020
0000
0000
0000
0000
0000
0000
0000
0000
0000
0000
1130
0000
0000
0000
0000
0000
0000
0000
0200
0000
0000
0000
0000
0000
0000
0000
0000
0000
0000
0000
0000
0000
0000
0000
0011
0000
0000
0000
0000
0000
0000
0000
0000
0000
0000
0000
0000
,
0000
0000
0000
0000
0000
0000
0000
0000
0000
0000
0000
0000
1001
0000
0000
0000
0000
0000
0000
0000
0000
0000
0000
0000
0000
0000
0000
0000
0000
0000
0000
0000
0000
0000
0000
0000
0000
1310
0000
0000
0000
0000
0000
0000
0000
0000
0000
0000
,
2000
0000
0000
0000
0000
0000
0000
0000
0000
0000
0000
3110
0000
0000
0000
0000
0000
0000
0000
0000
0002
0000
0000
0000
0000
0000
0000
0000
0000
0000
0000
0000
0000
0000
0000
0000
1103
0000
0000
0000
0020
0000
0000
0000
0000
0000
0000
0000
,
0000
0000
0000
0000
0000
0000
0000
0000
0000
0000
0000
0000
1001
0000
0000
0000
0000
0000
0000
0000
0000
0000
0000
0000
0000
0000
0000
0000
0000
0000
0000
0000
0000
0000
0000
0101
0000
0000
0000
0000
0000
0000
0030
0000
0000
0000
0000
0000
,
0000
0200
0000
0000
0000
0000
0000
0000
0000
0000
1010
0000
0000
0000
0000
0000
0300
0000
0000
0000
0000
0000
0000
0002
0000
0000
0000
0000
0000
0000
0000
0000
0000
0000
0000
0000
1100
0000
0000
0000
0000
0000
0000
0000
0000
0000
0000
0000
,
0000
0000
0000
0000
0000
0000
0000
0000
0000
0000
0000
0110
0000
0000
0000
0000
0000
0000
0000
0000
0000
0000
0000
0000
0000
0000
0000
0000
0000
0000
0000
0000
0000
0000
0000
1013
0000
0000
0000
0000
0000
0000
0000
0000
0000
0000
0000
2000
,
0000
0000
0000
0000
0000
0000
0000
0000
0000
0000
0000
0110
0000
0000
0000
0000
0000
3000
0000
0000
0000
0000
0000
0020
0000
0000
0000
0000
0000
0000
0000
0000
0000
0000
0000
0000
1130
0000
0000
0000
0000
0000
0200
0000
0000
0000
0000
0000
,
0000
0000
0000
0000
0000
0000
0000
0000
0000
0000
1010
0000
0000
0000
0000
0000
0000
0000
0000
0000
0000
0000
0000
0000
0000
0000
0000
0000
0000
0000
0000
0000
0000
0000
0011
0000
0000
0000
0000
0000
0000
0300
0000
0000
0000
0000
0000
0020
,
0000
0000
0000
0000
0000
0000
1130
0000
0000
0000
0002
0000
0000
0000
0000
0000
0000
1100
0000
0000
0000
0000
0000
0000
,
0000
0000
0000
0000
0000
0000
0000
0000
0000
0000
0000
1010
0000
0000
0000
0000
0000
0000
0000
0000
0000
0000
0000
0000
0000
0000
0000
0000
0000
0000
0000
0000
0000
0000
0110
0000
0000
0000
0000
0000
0003
0000
0000
0000
0000
0000
0000
0200
,
0000
0000
0000
0000
0000
0000
0000
0000
0000
0000
0000
1010
0000
0000
0000
0300
0000
0000
0000
0000
0000
0002
0000
0000
0000
0000
0000
0000
0000
0000
0000
0000
0000
0000
1013
0000
0000
0000
0000
0000
0000
0000
0200
0000
0000
0000
0000
0000
,
0000
0000
0000
0000
0000
0000
0000
0000
0000
0000
0011
0000
0000
0000
0000
0000
0000
0000
0000
0000
0000
0000
0000
0000
0000
0000
0000
0000
0000
0000
0000
0000
0000
0000
0000
1010
0000
0000
0000
0000
0000
0000
0300
0000
0000
0000
0000
0000
,
1002
0000
0000
0000
0000
0000
0000
0000
0000
0000
0000
0000
0000
1010
0000
0000
0000
0000
0000
0000
0000
0000
0000
0010
0000
0000
0000
0000
0000
0000
0000
0000
,
0000
0000
0000
0000
0000
0000
1100
0000
0000
0000
0000
0000
0000
0000
0000
0000
0003
0000
0000
0000
0000
0000
0000
0000
0000
0000
0000
0000
0000
0000
0000
0000
0000
0000
0000
0000
0000
0000
0000
0000
0000
0000
0000
0000
0000
0000
0000
0000
0000
0000
0000
0000
0000
0000
0000
0000
0000
0000
0000
0000
0000
0000
0000
0000
0000
0000
0000
0000
0000
0000
0000
0000
0100
0000
0000
0000
0000
0000
0000
0000
0000
0000
0000
0000
0000
0000
0000
0000
0000
0000
0000
0000
0000
0000
0000
0000
0000
0000
0000
0000
0000
0000
0000
0000
0000
0000
0000
0000
0000
0000
0000
0000
0000
0000
0000
0000
0000
0000
0000
0000
0000
0000
0000
0000
0000
0000
0000
0000
0000
0000
0000
0000
0000
0000
0000
0000
0000
0000
1001
0000
0000
0000
0000
0000
0000
0000
0000
0000
0000
0000
0000
0000
0000
0000
0000
0000
0000
0000
0000
0000
0000
0000
0000
0000
0000
0000
0000
0000
0000
0000
0000
0000
0000
0000
0000
0000
0000
0000
0000
0000
0000
0000
0000
0000
0000
0000
0000
0000
0000
0000
0000
0000
,
0000
0000
0010
0000
0000
0000
0000
0000
0000
0000
0000
0000
0000
1100
0000
0000
0000
0000
0000
0000
0000
0000
0000
0010
0000
0000
0000
0000
0000
0000
0000
0000
,
0000
0000
1020
0000
0000
0000
0000
0030
0000
0000
0000
0000
0201
0000
0000
0000
0000
0300
0000
0000
0000
0000
2010
0000
0000
0000
0000
3000
0000
0000
0000
0000
,
0000
0000
0000
0000
0210
0000
0000
0000
0000
0000
0000
0000
0000
0000
0000
0000
0000
0000
0000
0000
0000
0000
0000
0000
0000
0000
0000
0000
0300
0000
0000
0000
0000
0000
0000
0000
0000
0000
0000
0000
0000
0000
0000
0000
0000
0000
0000
0000
0000
0000
0000
0000
0000
0000
0000
0000
0000
0000
0000
0000
0000
0000
0000
0000
0000
0000
0000
0000
0000
0000
0000
0000
1020
0000
0000
0000
0000
0000
0000
0000
0000
0000
0000
0000
0000
0000
0000
0000
0000
0000
0000
0000
0000
0000
0000
0000
0000
0000
0000
0000
0000
0000
0030
0000
0000
0000
0000
0000
0000
0000
0000
0000
0000
0000
0000
0000
0000
0000
0000
0000
0000
0000
0000
0000
0000
0000
0000
0000
0000
0000
0000
0000
0000
0000
0000
0000
0201
0000
0000
0000
0000
0000
0000
0000
0000
0000
0000
0000
0000
0000
0000
0000
0000
0000
0000
0000
0000
0000
0000
0000
0000
0000
0000
0000
0000
0000
0000
0000
0300
0000
0000
0000
0000
0000
0000
0000
0000
0000
0000
0000
0000
0000
0000
0000
0000
0000
0000
0000
0000
0000
0000
0000
,
0000
0000
2010
0000
0000
0000
0000
0000
0000
3000
0000
0000
0000
0000
0000
0000
0000
0000
0102
0000
0000
0000
0000
0000
0000
0000
0000
0000
0000
0000
0000
0000
0000
0000
0000
0000
1100
0000
0000
0000
0000
0000
0000
0000
0000
0000
0000
0000
,
0000
0000
0000
0000
0000
0000
0000
0000
0000
0000
0000
0000
0000
0000
0000
0000
0000
0000
0010
0000
0000
0000
0000
0000
0000
0000
0000
0000
0000
0000
0000
0000
0000
0000
0000
0000
0000
0000
0000
0000
0000
0000
0000
0000
0000
0000
0000
0000
0000
0000
0000
0000
0000
0000
0000
0000
0000
0000
0000
0000
0000
0000
0000
0000
0000
0000
0000
0000
0000
0000
0000
0000
0000
0000
0000
0000
0000
0000
0000
0000
0000
0000
0000
0000
1010
0000
0000
0000
0000
0000
0000
0000
0000
0000
0000
0000
0000
0000
0000
0000
0000
0000
0000
0000
0000
0000
0000
0000
0000
0000
0000
0000
0000
0000
0000
0000
0000
0000
0000
0000
0000
0000
0000
0000
0000
0000
0000
0000
0000
0000
0000
0000
0000
0000
0000
0000
0000
0000
0000
0000
0000
0000
0000
0000
0100
0000
0000
0000
0000
0000
0000
0000
0000
0000
0000
0000
0000
0000
0000
0000
0000
0000
0000
0000
0000
0000
0000
0000
0000
0000
0000
0000
0003
0000
0000
0000
0000
0000
0000
0000
0000
0000
0000
0000
0000
0000
0000
0000
0000
0000
0000
0000
,
0000
0000
1001
0000
0000
0000
0000
0000
0000
0000
0000
0000
0000
0010
0000
0000
0000
0000
0000
0000
0000
0000
0000
0000
1100
0000
0000
0000
0000
0000
0000
0000
,
0000
0000
0000
0000
0102
0000
0000
0000
0003
0020
0000
0000
0000
0030
0200
0000
0000
0000
0300
2000
0000
0000
0000
3000
0020
0000
0000
0000
0030
0200
0000
0000
,
0000
0300
0002
0000
0000
0000
0003
0020
0000
0000
0000
0030
2000
0000
0000
0000
3000
0200
0000
0000
0000
0300
0002
0000
0000
0000
0003
0020
0000
0000
0000
0030
,
2000
0000
0000
0000
0000
0000
0000
0000
0000
0000
0000
0000
0000
0000
0000
0000
0000
0000
0000
0000
0000
0000
0000
0000
0000
0000
0000
0000
0000
0000
0000
0000
0000
0000
0000
0000
0000
0000
0000
0000
0000
0000
0000
0000
0000
0000
0000
0000
0000
0000
0000
0000
0000
0000
0000
0000
0000
0000
0000
0000
0000
0000
0000
0000
0000
0000
3000
0000
0220
0000
0000
0000
0000
0000
0000
0000
0000
0000
0000
0000
0000
0000
0000
0000
0000
0000
0000
0000
0000
0000
0000
0000
0000
0000
0000
0000
0000
0000
0000
0000
0000
0000
0000
0000
0000
0000
0000
0000
0000
0000
0000
0000
0000
0000
0000
0000
0330
0000
0000
0000
0000
0000
0000
0000
0000
0000
0000
0000
0000
0000
0000
0000
0000
0000
0000
0000
1001
0000
0000
0000
0000
0000
0000
0000
0000
0000
0000
0000
0000
0000
0000
0000
0010
0000
0000
0000
0000
0000
0000
0000
0000
0000
0000
0000
0000
0000
0000
0000
0100
0000
0000
0000
0000
0000
0000
0000
0000
0000
0000
0000
0000
0000
0000
0000
0010
0000
0000
0000
0000
0000
0000
0000
,
0000
1001
0000
0100
0000
0010
0000
0001
0000
0010
0000
0100
0000
1000
0000
0101
0000
0010
0000
0100
0000
1000
0000
0100
,
0000
0010
0000
0001
0000
1000
0000
0100
0000
0011
0000
0100
0000
1000
0000
0100
0000
0010
0000
1000
0000
0100
0000
0010
,
0000
0101
0000
0010
0000
0100
0000
1000
0000
0100
0000
1000
0000
0100
0000
0010
0000
1100
0000
0001
0000
0010
0000
0100
,
0000
0001
0000
0010
0000
0100
0000
1000
0000
0011
0000
0100
0000
0010
0000
1000
0000
0100
0000
0001
0000
0010
0000
0100
,
0000
1001
0000
0010
0000
0100
0000
1000
0000
0001
0000
0100
0000
0010
0000
1000
0000
0011
0000
0100
0000
0010
0000
0001
,
0000
1000
0000
0100
0000
0010
0000
0100
0000
1001
0000
0010
0000
0100
0000
0001
0000
0010
0000
1000
0000
0100
0000
0010
,
0000
1100
0000
0001
0000
0010
0000
0100
0000
0001
0000
0010
0000
1000
0000
0100
0000
0011
0000
0100
0000
0001
0000
1000
,
0000
0010
0000
0100
0000
0001
0000
1000
0000
0100
0000
1001
0000
0100
0000
0010
0000
0100
0000
1000
0000
0001
0000
0010
,
0000
0100
0000
0011
0000
1000
0000
0100
0000
0010
0000
0100
0000
1000
0000
0010
0000
0101
0000
1000
0000
0010
0000
0100
,
0000
0001
0000
0210
0000
0001
0000
0310
0000
2001
0000
0010
0000
0100
0000
3010
0000
0002
0000
1000
0000
0100
0000
0010
,
0000
1003
0000
0120
0000
0001
0000
1000
0000
0130
0000
1020
0000
0000
0000
0000
0000
0000
0000
1001
0000
0000
0000
0000
,
0000
0000
0000
0100
0000
0000
0000
0000
0000
0000
0000
1100
0000
0000
0000
0000
0000
0000
0000
0001
0000
0000
0000
0000
,
0000
0000
0000
0101
0000
0000
0000
0000
0000
0000
0000
1000
0000
0000
0000
0000
0000
0000
0000
0131
0000
0000
0000
0000
,
0000
0000
0000
1001
0000
0010
0000
0100
0000
1000
0000
0011
0000
0100
0000
1000
0000
0001
0000
0010
0000
0100
0000
1000
,
0000
0101
0000
0010
0000
1000
0000
0100
0000
0010
0000
0001
0000
0010
0000
1100
0000
0001
0000
0100
0000
0010
0000
0001
,
0000
1000
0000
0100
0000
1010
0000
0100
0000
0001
0000
0100
0000
0001
0000
1000
0000
0100
0000
0011
0000
0000
0000
0000
,
0000
0000
0000
1001
0000
0000
0000
0000
0000
0000
0000
0100
0000
0000
0000
0000
0000
0000
0000
1010
0000
0000
0000
0000
,
0000
0000
0000
0100
0000
0000
0000
0000
0000
0000
0000
0011
0000
0000
0000
0000
0000
0000
0000
0100
0000
0000
0000
0000
,
0000
0000
0000
1010
0000
0000
0000
0000
0000
0000
1001
0000
0010
0000
0100
0000
0001
0000
0110
0000
1000
0000
0001
0000
,
0010
0100
0001
1000
0101
0010
0100
0010
1000
0100
1000
0110
,
0001
0010
1000
0100
0001
1000
0011
0100
0001
1000
0100
0001
,
1000
0011
0100
0010
0001
1010
0000
0000
0000
0001
0000
0000
,
0000
1100
0000
0000
0000
0010
0000
0000
0000
0101
0000
0000
,
0000
0010
0000
0000
0000
1100
0000
0000
0000
1001
0010
0100
,
0010
1001
0100
0001
1000
0001
0010
0100
0011
1000
0100
0010
,
1000
0100
0001
0010
0100
0011
1000
0100
0010
0001
0100
1000
,
0001
1010
0100
0001
1000
0011
0000
0000
0000
0000
0011
0000
,
0000
0000
0000
1000
0000
0000
0000
0000
0000
0000
0000
0110
0000
0000
0000
0000
0000
0000
0000
0001
0000
0000
0000
0000
,
0000
0000
0000
1010
0000
0000
0000
0000
0000
0000
0000
0100
0000
0000
0000
0000
0000
0000
0000
0011
0000
0000
0000
0000
,
0000
0000
0000
1001
0000
0010
0000
0100
0000
0001
0000
0010
0000
1001
0000
0100
0000
0001
0000
0100
0000
0010
0000
1000
,
0000
0100
0000
1001
0000
0010
0000
0100
0000
0001
0000
0010
0000
1000
0000
0100
0000
0010
0000
1000
0000
0110
0000
0001
,
0000
0010
0000
0100
0000
1000
0000
0010
0000
0100
0000
0001
0000
0010
0000
0100
0000
0000
1001
0000
0000
0000
0000
0000
,
0000
1010
0000
0000
0001
0000
0000
0110
,
0000
0000
0000
1000
0000
0000
0000
0011
0000
0000
0000
0100
,
0000
0000
0000
0000
0000
0000
1010
0000
0000
0000
0000
0000
0000
0000
0000
0100
0000
0000
0000
0000
0000
0000
0000
1021
,
0000
0000
0000
0030
0000
0000
0000
0201
0000
0000
0000
0300
0000
0000
0000
2011
0000
0000
0000
0000
3000
0000
0000
0000
,
0021
0000
0000
0000
0030
0000
0000
0000
1201
0000
0000
0000
0300
0000
0000
0000
0000
0021
0000
0000
0000
0030
0000
0000
,
0000
1201
0000
0000
0000
0300
0000
0000
0000
2001
0000
0000
0000
0000
0000
0000
0011
0000
0000
0000
0000
0000
0000
0000
,
0000
0000
0100
0000
0000
0000
0000
0000
0000
0000
0000
0011
0000
0000
0000
0000
0000
0000
0000
0000
0000
0010
0000
0000
,
0000
0000
0000
0000
0000
0101
0000
0000
0000
0000
0000
0000
0000
0001
0000
0000
0000
3000
0000
0000
0000
0000
0110
0000
,
0000
0000
0000
0000
0000
0000
0010
0000
0000
0000
0000
0000
0000
0000
0000
2101
0000
0000
0000
3000
0000
0000
0000
0021
,
0000
0000
0000
0030
0000
0000
0000
1201
0000
0000
0000
0000
0300
0000
0000
0000
2001
0000
0000
0000
3000
0000
0000
0000
,
0121
0000
0030
0000
0201
0000
0300
0000
1021
0000
0030
0000
,
0201
0000
0000
0000
0000
0000
0000
0000
1010
0000
0000
0000
0000
0000
0000
0000
0000
1000
0000
0000
0000
0000
0000
0000
,
0000
0000
0000
1001
0000
0000
0000
0000
0000
0000
0000
0010
0000
0000
0000
0000
0000
0000
0000
0000
1010
0000
0000
0000
,
0000
0000
0000
0000
0001
0000
0000
0300
0000
0000
0000
0000
0110
0000
0000
0000
0000
0000
0000
0000
0000
1000
0000
0000
,
0000
0000
0000
0000
0000
1201
0000
0000
0000
0000
0300
0000
0000
0000
2001
0000
0000
0000
3000
0000
0000
0000
0211
0000
,
0000
0000
0300
0000
0000
0000
1002
0000
0000
0000
0003
0000
0000
0000
1210
0000
0000
0000
0000
0300
0000
0000
0000
2001
,
0000
0000
0000
3000
0000
0000
0000
0211
0000
0000
0000
0300
0000
0000
0000
2001
0000
0000
0000
0000
0000
0000
0000
0000
,
0011
0000
0000
0000
0000
0000
0000
0000
0000
0100
0000
0000
0000
0000
0000
0000
0000
0101
0000
0000
0000
0000
0000
0000
,
0000
0000
0010
0000
0000
0000
0000
0000
0000
0000
0101
0000
0000
0000
0000
0000
0000
0000
0000
0001
0000
0000
0000
0000
,
0000
0000
0000
0110
0000
0000
0000
3000
0000
0000
0000
0000
0100
0000
0000
0000
0000
0000
0000
0000
1021
0000
0000
0000
,
0030
0000
0000
0000
0201
0000
0000
0000
0300
0000
0000
0000
0000
2011
0000
0000
0000
0000
3000
0000
0000
0000
0102
0000
,
0000
0003
0000
2110
0000
3000
0000
0210
0000
0300
0000
1021
,
0000
0000
0000
0030
0000
0000
0102
0000
0000
0000
0000
0000
0000
0000
1010
0000
0000
0000
0000
0000
0000
0000
0100
0000
,
0000
0000
0000
0000
0000
0000
0000
1100
0000
0000
0000
0000
0000
0000
0000
0000
0010
0000
0000
0000
0000
0000
0000
0000
,
0000
1100
0000
0000
0000
0000
0000
0000
0000
0000
0010
0000
0000
0000
0003
0000
0000
0000
1001
0000
0000
0000
0000
0000
,
0000
0000
0000
0010
0000
0000
0000
0000
0000
0000
0000
0000
1021
0000
0000
0000
0030
0000
0000
0000
2100
0000
0000
0000
,
0000
3000
0000
0000
0121
0000
0000
0000
0000
0030
0000
0000
0201
0000
0000
0000
0300
0000
0000
0000
0000
1012
0000
0000
,
0000
0003
0000
0000
0000
0120
0000
0000
0000
0000
0030
0000
0000
1201
0000
0000
0000
0300
0000
0000
0000
0021
0000
0000
,
0000
0000
0000
0000
0000
0000
1001
0000
0000
0000
0000
0000
0000
0000
0100
0000
0000
0000
0000
0000
0000
0000
0000
1001
,
0000
0000
0000
0000
0000
0000
0000
0100
0000
0000
0000
0000
0000
0000
0000
0101
0000
0000
0000
0000
0000
0000
0000
0000
,
0001
0000
0000
0000
0030
0000
0000
0000
1100
0000
0000
0000
0000
0000
0000
0000
0000
0100
0000
0000
0000
0000
0000
0000
,
0000
2011
0000
0000
0000
3000
0000
0000
0000
0120
0000
0000
0000
0030
0000
0000
0000
0000
1201
0000
0000
0000
0300
0000
,
0000
0000
0000
2001
0000
0000
0000
3000
0000
0000
0000
0121
0000
0000
0000
0000
0030
0000
0000
0102
0000
0000
0000
0000
,
0003
0000
1120
0000
0030
0000
0201
0000
0000
0000
1010
0000
,
0000
0000
0000
0000
1000
0000
0000
0000
0000
0000
0000
0000
0000
0011
0000
0000
0000
0000
0000
0000
0000
0000
0010
0000
,
0000
0000
0000
0000
0000
0000
0000
1001
0000
0000
0000
0000
0000
0000
0000
0010
0000
0000
0300
0000
0000
0000
0000
1100
,
0000
0000
0000
0000
0000
0000
0000
0000
0010
0000
0000
0000
0000
0000
0000
1021
0000
0000
0000
0000
0030
0000
0000
0000
,
0201
0000
0000
0000
0300
0000
0000
0000
2011
0000
0000
0000
0000
3000
0000
0000
0000
0021
0000
0000
0000
0030
0000
0000
,
0000
1201
0000
0000
0000
0300
0000
0000
0000
0000
0021
0000
0000
0000
0030
0000
0000
0000
2101
0000
0000
0000
0000
3000
,
0000
0000
0000
0012
0000
0000
0000
0000
0000
0000
0000
1010
0000
0000
0000
0000
0000
0000
0000
0000
0100
0000
0000
0000
,
0000
0000
0000
0000
0110
0000
0000
0000
0000
0000
0000
0000
0100
0000
0000
0000
0000
0000
0000
0000
0000
1010
0000
0000
,
0000
0003
0000
0000
0000
0000
0001
0000
0000
0000
0000
0000
0000
0000
0110
0000
0000
0000
0000
0000
0000
0000
1000
0000
,
0000
0000
0000
0000
0000
0000
0000
0121
0000
0000
0000
0030
0000
0000
2001
0000
0000
0000
3000
0000
0000
0000
0211
0000
,
0000
0000
0300
0000
0000
0000
0000
1020
0000
0000
0000
0030
0000
0000
0000
0000
2101
0000
0000
0000
3000
0000
0000
0000
,
0021
0000
0000
0000
0030
0000
0000
0000
2101
0000
0000
0000
0000
3000
0000
0000
0000
0200
0000
0000
0000
0000
0000
0000
,
0000
0000
0000
0000
,
0000
0000
0000
0000
,
0000
0000
0000
0000
,
0000
0000
0000
0000
0000
0000
0000
0000
0000
0000
0000
0000
0000
0000
0000
0000
0000
0000
0000
0000
0000
0000
0000
0000
0000
0000
0000
0000
0000
0000
0000
0000
0000
0000
0000
0000
0000
0000
0000
0000
0000
0300
0000
0000
0000
0000
0000
0010
0001
0000
0000
0100
0000
0000
0010
0000
0000
1000
0000
0000
0000
0010
0000
0000
,
0100
0000
0000
0001
0000
0000
1000
0000
0000
0010
0000
0000
0000
0100
0000
0000
0001
0000
0000
0010
0000
0000
0100
0000
0000
0000
0001
0000
0000
1000
0000
0000
0010
0000
0000
0100
0000
0000
0000
0010
0000
0000
1000
0000
0000
0001
0000
0000
0100
0000
0000
0010
0000
0000
0000
1000
0000
0000
0001
0000
0000
0100
0000
0000
,
0010
0000
0000
0000
1000
0000
0000
0100
0000
0000
0010
0000
0000
1000
0000
0000
0001
0000
0000
0000
0010
0000
0000
0100
0000
0000
0001
0000
0000
0000
1000
0000
0000
0010
0000
0100
0000
0000
0000
0001
0000
0000
1000
0000
0000
0010
0000
0000
0100
0000
0000
0010
0000
0000
0000
1000
0000
0000
0001
0000
0000
0100
0000
0000
,
0010
0000
0000
1000
0000
0000
0000
0100
0000
0000
1000
0000
0000
0100
0000
0000
0000
0001
0000
0000
0010
0000
0000
0001
0000
0000
0010
0000
0000
0100
0000
0000
0001
0000
0000
0000
1000
0000
0000
0010
0000
0000
0000
0100
0000
0000
0001
0000
0000
1000
0000
0000
0010
0000
0000
0100
0000
0000
0001
0000
0000
1000
0000
0000
,
0000
0010
0000
0000
0100
0000
0000
0010
0000
0000
0000
0100
0000
0000
0010
0000
0000
1000
0000
0000
0001
0000
0000
0100
0000
0000
0010
0000
0000
1000
0000
0000
0100
0000
0000
0001
0000
0000
0010
0000
0000
0100
0000
0000
0000
0000
0010
0000
0000
1000
0000
0000
0001
0000
0000
0100
0000
0000
0000
0010
0000
0000
1000
0000
,
0001
0000
0000
0000
0100
0000
0000
0000
0010
0000
1000
0000
0000
0000
0010
0000
0000
0100
0000
0000
0001
0000
0000
0100
0000
0000
0010
0000
0000
0000
1000
0000
0000
2222
3333
0000
0000
0000
0000
0000
0000
0000
0000
0000
0000
0000
0000
0000
0000
0000
0000
0000
0000
0000
0000
0000
0000
0000
0000
0000
0000
0000
0000
0000
;
